.
Авторизация | Регистрация

Торрент скачать бесплатно

  • support: webmaster@btracker.club
» » Сотня / 100 / The 100 (2019) WEBRip (сезон 6, серии 1-2 из 13) BaibaKo [MP4|720x400] (обновляемая) [AD] торрент скачать бесплатно


    Сотня / 100 / The 100 (2019) WEBRip (сезон 6, серии 1-2 из 13) BaibaKo [MP4|720x400] (обновляемая) [AD] торрент скачать бесплатно

    Дата: 11-04-2019, 05:00 | .torrent скачали: 4

    Сотня / 100 / The 100 (2019) WEBRip (сезон 6, серии 1-2 из 13) BaibaKo [MP4|720x400] (обновляемая) [AD]Производство: США
    Жанр: фантастика, драма, детектив
    Режиссер: Дин Уайт, Джон Беринг, Милан Чейлов
    Актеры: Элиза Тейлор-Коттер, Мари Авгеропулос, Сачин Сахель, Линдси Морган, Женевьев Бюкнер, Ричард Хэрмон, Джарод Джозеф, Челси Рейст, Крис Браунинг, Джош Ссеттуба и др.

    Описание

    События в сериале начинают разворачиваться по прошествии девяносто семи лет после того как всю цивилизацию уничтожила страшная атомная война. Высоко в космосе на орбите Земли летает большой космический корабль, именно здесь находятся те, кто выжил после страшной катастрофы. Они единственные кто пережил этот ужасный катаклизм который устроило человечество. Именно с этого последнего пристанища людей на Землю отправляют космический челнок на котором находятся сто малолетних преступников…

    Возраст: 16+ (зрителям, достигшим 16 лет)
    Продолжительность: ~00: 42: 00 серия
    Качество видео: WEBRip
    Перевод: Многоголосый закадровый, профессиональный -BaibaKo
    Реклама: присутствуют видео и текстовые вставки рекламы
    Видео: MPEG-4 (H.263), 720x400 (16: 9), ~1500 Kbps
    Аудио #1: AAC, 2 ch, 160 Kbps - русский, многоголосый закадровый
    Аудио #2: AAC, 2 ch, 160 Kbps - английский

    Полное имя : M: The_100_s6_WEBRip_BaibaKo_NNM-CLUBThe.100.s06e01.WEBRip.Rus.Eng.BaibaKo.mp4
    Формат : MPEG-4
    Профиль формата : Base Media
    Идентификатор кодека : isom
    Размер файла : 562 Мбайт
    Продолжительность : 42 м.
    Режим общего битрейта : Постоянный
    Общий поток : 1829 Кбит/сек
    Программа кодирования : XviD4PSP 7.0.129
    Видео
    Идентификатор : 1
    Формат : MPEG-4 Visual
    Профиль формата : Advanced Simple@L5
    Параметр BVOP формата : Да
    Параметр QPel формата : Нет
    Параметр GMC формата : Без точки перехода
    Параметр матрицы формата : Default (H.263)
    Идентификатор кодека : 20
    Продолжительность : 42 м.
    Вид битрейта : Постоянный
    Битрейт : 1500 Кбит/сек
    Ширина : 720 пикселей
    Высота : 400 пикселей
    Соотношение сторон : 16: 9
    Режим частоты кадров : Постоянный
    Частота кадров : 29, 970 кадров/сек
    Цветовое пространство : YUV
    Субдискретизация насыщенности : 4: 2: 0
    Битовая глубина : 8 бит
    Тип развёртки : Прогрессивная
    Метод сжатия : С потерями
    Бит/(Пиксели*Кадры) : 0.174
    Размер потока : 461 Мбайт (82%)
    Аудио #1
    Идентификатор : 2
    Формат : AAC
    Формат/Информация : Advanced Audio Codec
    Профиль формата : LC
    Идентификатор кодека : 40
    Продолжительность : 42 м.
    Вид битрейта : Постоянный
    Битрейт : 160 Кбит/сек
    Каналы : 2 канала
    Расположение каналов : Front: L R
    Частота : 48, 0 КГц
    Метод сжатия : С потерями
    Размер потока : 49, 1 Мбайт (9%)
    Язык : Russian
    Аудио #2
    Идентификатор : 3
    Формат : AAC
    Формат/Информация : Advanced Audio Codec
    Профиль формата : LC
    Идентификатор кодека : 40
    Продолжительность : 42 м.
    Вид битрейта : Постоянный
    Битрейт : 160 Кбит/сек
    Каналы : 2 канала
    Расположение каналов : Front: L R
    Частота : 48, 0 КГц
    Метод сжатия : С потерями
    Размер потока : 49, 1 Мбайт (9%)


    Сотня/100/The 100 (2019) WEBRip (сезон 6, серии 1-2 из 13) BaibaKo [MP4|720x400] (обновляемая) [AD]
    Рейтинг →
     (голосов: 1, оценка 4/5, голосовать можно 1 раз )

    Другие торренты по теме:

  • Сотня / 100 / The 100 (2017) WEBRip (сезон 4, серии 1-9 из 13) AMS (обновляемая) [AD]
  • Сотня / 100 / The 100 (2017) WEBRip [H.264 / 720p-LQ] (сезон 4, серии 1-9 из 13) AMS (обновляемая) [AD]
  • Сотня / 100 / The 100 (2017) WEBRip [H.264 / 1080p] (сезон 4, серии 1-9 из 13) AMS (обновляемая) [AD]
  • Сотня / The 100 (2019) WEBRip [H.264 / 720p-LQ] (сезон 6, серии 1-3 из 13) Kelix (обновляемая) [AD]
  • Сотня / The 100 (2019) WEBRip [H.264 / 1080p] (сезон 6, серия 1-2 из 13) JimmyJ (обновляемая) [PR, AD]
  • Сотня / The 100 (2019) WEBRip [H.264 / 720p] (сезон 6, серия 1-2 из 13) JimmyJ (обновляемая) [PR, AD]
  • Сотня / The 100 (2019) WEBRip (сезон 6, серия 1-2 из 13) JimmyJ (обновляемая) [AD]


    • Комментарии (0):

      Информация

      Информация

        Посетители, находящиеся в группе Гости, не могут оставлять комментарии в данной новости.

        ↓ Меню




        ↓ Опрос

        Вы добавили сайт в закладки?
        Да
        Нет


        Top 10 за месяц (КПК и мобильные)