.
Авторизация | Регистрация

Торрент скачать бесплатно

  • support: webmaster@btracker.club
» » За пределами / Род человеческий / Extant (2015) WEB-DLRip [H.264] (Сезон 2, серии 1-13 из 13) LostFilm [MP4|720p] торрент скачать бесплатно


    За пределами / Род человеческий / Extant (2015) WEB-DLRip [H.264] (Сезон 2, серии 1-13 из 13) LostFilm [MP4|720p] торрент скачать бесплатно

    Дата: 13-03-2019, 05:00 | .torrent скачали: 4

    За пределами / Род человеческий / Extant (2015) WEB-DLRip [H.264] (Сезон 2, серии 1-13 из 13) LostFilm [MP4|720p]Производство: США
    Жанр: Фантастика, триллер, драма
    Режиссер: Пэрис Барклай, Мэтт Эрл Бисли, Аллен Култер
    Актеры: Холли Берри, Брэд Бейер, Горан Вишнич, Пирс Гэнон, Камрин Менхейм, Тайлер Хилтон, Серджо Харфорд, Грэйс Гаммер, Майкл О’Нил, Жанетта Арнетт и др.

    Описание

    Астронавт Молли Вудс (Холли Берри) возвращается на Землю после 13-месячной одиночной космической экспедиции и обнаруживает, что беременна, и зачатие произошло на орбитальной станции. Женщина не помнит, как это произошло, а потому предпринимает отчаянные попытки скрыть случившееся от своего мужа Джона (Горан Вишнич) и усыновленного андроида Итана (Пирс Гэнон), с которыми по прибытии у нее складываются напряженные отношения. Помимо семейных проблем, Молли также ждут неприятности с руководством Международного агентства космических исследований. Ее начальство отказывается верить в то, что Вудс случайно удалила несколько часов видео с внутренних камер наблюдения. Они ведут свое расследование и проявляют подозрительный интерес к возможному внеземному контакту. Молли придется приложить все усилия, чтобы спасти себя и семью от неминуемой опасности.

    Продолжительность: ~ 00: 43: 00 серия
    Качество видео: WEB-DLRip 720p
    Перевод: Многоголосый закадровый, профессиональный -LostFilm
    Озвучка: Студия LostFilm
    Видео: AVC/H.264, 1280x720 (16: 9), ~4000 Кбит/сек
    Аудио: AAC, 2 канала, 265 Кбит/сек - русский (многоголосый закадровый, LostFilm)
    Код: выделить все

    Полное имя : D:Extant_s2_WEB-DL720p_x264_LostFilm_[NNM-CLUB]Extant.S02E01.720p.WEB.rus.LostFilm.TV.mp4
    Формат : MPEG-4
    Профиль формата : Base Media
    Идентификатор кодека : isom
    Размер файла : 1, 31 Гбайт
    Продолжительность : 43 м.
    Режим общего битрейта : Переменный
    Общий поток : 4320 Кбит/сек
    Коллекция : Род человеческий
    Сезон : 2
    Альбом : Род человеческий, Сезон 1
    Альбом/Исполнитель : Род человеческий
    Часть : 1
    Часть/Положение : 2
    Трек : Смена сценария
    Трек/Положение : 1
    Исполнитель : Род человеческий
    Жанр : Sci-Fi Fantasy
    Тип содержимого : TV Show
    Дата записи : 2015
    Дата кодирования : UTC 2015-07-02 17:47:21
    Дата пометки : UTC 2015-07-02 17:47:21
    Программа кодирования : Yamb 2.1.0.0 [http://yamb.unite-video.com]/LostCoder
    Правообладатель : LostFilm.TV (c)
    Обложка : Yes
    Примечание : Астронавт Молли Вудс возвращается на Землю после 13-месячной одиночной космической экспедиции и обнаруживает, что беременна, и зачатие произошло на орбитальной станции.
    Part_ID : 201
    Видео
    Идентификатор : 1
    Формат : AVC
    Формат/Информация : Advanced Video Codec
    Профиль формата :High@L3.1
    Параметр CABAC формата : Нет
    Параметр ReFrames формата : 2 кадра
    Идентификатор кодека : avc1
    Идентификатор кодека/Информация : Advanced Video Coding
    Продолжительность : 43 м.
    Битрейт : 4000 Кбит/сек
    Максимальный битрейт : 13, 4 Мбит/сек
    Ширина : 1280 пикселей
    Высота : 720 пикселей
    Соотношение сторон : 16:9
    Режим частоты кадров : Переменный
    Частота кадров : 23, 976 кадра/сек
    Минимальная частота кадров : 23, 974 кадра/сек
    Максимальная частота кадров : 23, 981 кадра/сек
    Цветовое пространство : YUV
    Субдискретизация насыщенности : 4:2:0
    Битовая глубина : 8 бит
    Тип развёртки : Прогрессивная
    Бит/(Пиксели*Кадры) : 0.181
    Размер потока : 1, 23 Гбайт (94%)
    Библиотека кодирования : x264 core 112 r1834 a51816a
    Настройки программы : cabac=0/ref=3/deblock=1:0:0/analyse=0x1:0x111/me=hex/subme=7/psy=1/psy_rd=1.00:0.00/mixed_ref=1/me_range=16/chroma_me=1/trellis=1/8x8dct=0/cqm=0/deadzone=21, 11/fast_pskip=1/chroma_qp_offset=-2/threads=12/sliced_threads=0/nr=0/decimate=1/interlaced=0/constrained_intra=0/bframes=3/b_pyramid=2/b_adapt=1/b_bias=0/direct=1/weightb=1/open_gop=0/weightp=2/keyint=250/keyint_min=25/scenecut=40/intra_refresh=0/rc_lookahead=40/rc=abr/mbtree=1/bitrate=4000/ratetol=1.0/qcomp=0.60/qpmin=0/qpmax=51/qpstep=4/vbv_maxrate=5000/vbv_bufsize=2000/ip_ratio=1.40/aq=1:1.00/nal_hrd=none
    Язык : English
    Дата пометки : UTC 2015-07-02 17:47:52
    Основные цвета : BT.709
    Характеристики трансфера : BT.709
    Коэффициенты матрицы : BT.709
    Аудио
    Идентификатор : 2
    Формат : AAC
    Формат/Информация : Advanced Audio Codec
    Профиль формата : LC
    Идентификатор кодека : 40
    Продолжительность : 43 м.
    Вид битрейта : Переменный
    Битрейт : 265 Кбит/сек
    Максимальный битрейт : 336 Кбит/сек
    Каналы : 2 канала
    Расположение каналов : Front: L R
    Частота : 48, 0 КГц
    Метод сжатия : С потерями
    Размер потока : 83, 9 Мбайт (6%)
    Дата кодирования : UTC 2015-07-02 17:47:50
    Дата пометки : UTC 2015-07-02 17:47:52


    За пределами/Род человеческий/Extant (2015) WEB-DLRip [H.264] (Сезон 2, серии 1-13 из 13) LostFilm [MP4|720p]
    Рейтинг →
     (голосов: 1, оценка 3/5, голосовать можно 1 раз )

    Другие торренты по теме:

  • За пределами / Выжившая / Род человеческий / Extant (2014) WEB-DL [H.264 / 720p-LQ] (Сезон 1, серии 01-12 из 13) Amedia (обновляемая)
  • За пределами / Выжившая / Род человеческий / Extant (2014) HDTVRip (Сезон 1, серии 1-12 из 13) (Amedia) (обновляемая)
  • За пределами (Род человеческий) (Extant) / (Сезон 1, серии 1-13 из 13) BaibaKo (2014) [MP4|720x400] <WEB-DLRip H.264>
  • Род человеческий (За пределами) (Extant) / (Сезон 1, серии 1-13 из 13) LostFilm (2014) [MP4 | 1280x720] <WEB-DL H.264>
  • За пределами / Выжившая / Род человеческий / Extant (2015) WEB-DLRip (сезон 2, серии 1 из 13) LostFilm (обновляемая) скачать через торрент бесплатно
  • За пределами / Выжившая / Род человеческий / Extant (2015) WEB-DLRip (сезон 2, серии 1 из 13) BaibaKo (обновляемая) скачать через торрент бесплатно
  • За пределами / Род человеческий / Extant (2015) WEB-DLRip [H.264] (Сезон 2, серия 1 из 13) BaibaKo [MP4|720x400] скачать через торрент бесплатно
  • За пределами / Выжившая / Род человеческий / Extant (2015) WEB-DLRip (сезон 2, серии 1 из 13) NewStudio (обновляемая) скачать через торрент бесплатно


    • Комментарии (0):

      Информация

      Информация

        Посетители, находящиеся в группе Гости, не могут оставлять комментарии в данной новости.

        ↓ Меню




        ↓ Опрос

        Вы добавили сайт в закладки?
        Да
        Нет


        Top 10 за месяц (КПК и мобильные)