.
Авторизация | Регистрация

Торрент скачать бесплатно

  • support: webmaster@btracker.club
» » Алита: Боевой ангел / Alita: Battle Angel (2019) TS [H.264] [MP4|1280x604] [AD] торрент скачать бесплатно


    Алита: Боевой ангел / Alita: Battle Angel (2019) TS [H.264] [MP4|1280x604] [AD] торрент скачать бесплатно

    Дата: 3-03-2019, 05:00 | .torrent скачали: 3

    Алита: Боевой ангел / Alita: Battle Angel (2019) TS [H.264] [MP4|1280x604] [AD]Производство: Канада, Аргентина, США/Twentieth Century Fox, Lightstorm Entertainment, Troublemaker Studios
    Жанр: Боевик, Приключения, Фантастика, Триллер
    Режиссер: Роберт Родригес
    Актеры: Роза Салазар, Кристоф Вальц, Дженнифер Коннелли, Махершала Али, Эд Скрейн, Джеки Эрл Хейли, Keean Johnson, Хорхе Лендеборг мл., Лана Кондор, Идара Виктор ...

    Описание

    Действие фильма происходит через 300 лет после Великой войны в XXVI веке. Доктор Идо находит останки женщины-киборга. После починки киборг ничего не помнит, но обнаруживает, что в состоянии пользоваться боевыми приемами киборгов. Начинаются поиски утерянных воспоминаний.

    Возраст: 16+ (зрителям, достигшим 16 лет)
    Рейтинг MPAA: PG-13 (детям до 13 лет просмотр нежелателен)
    Дата мировой премьеры: 5 февраля 2019
    Дата российской премьеры: 14 февраля 2019, Двадцатый Век Фокс СНГ
    Дата выхода DVD/Blu-ray релиза: 26 апреля 2019, Двадцатый Век Фокс СНГ
    Продолжительность: 01: 59: 57
    Качество видео: TS
    Перевод: многоголосый закадровый (оригинал не слышно)
    Субтитры: Корейские неотключаемые
    Реклама: Присутствуют вставки голосовой, текстовой и видео рекламы
    Видео: AVC/H.264, 1280x604, ~2438 kbps
    Аудио: AAC, 2 ch, 128 kbps

    General
    Complete name : Alita Battle Angel.mp4
    Format : MPEG-4
    Format profile : Base Media
    Codec ID : isom (isom/iso2/avc1/mp41)
    File size : 2.14 GiB
    Duration : 1 h 59 min
    Overall bit rate : 2 572 kb/s
    Writing application : Lavf57.72.101
    Video
    ID : 1
    Format : AVC
    Format/Info : Advanced Video Codec
    Format profile : High@L3.1
    Format settings, CABAC : Yes
    Format settings, RefFrames : 4 frames
    Codec ID : avc1
    Codec ID/Info : Advanced Video Coding
    Duration : 1 h 59 min
    Bit rate : 2 438 kb/s
    Width : 1 280 pixels
    Height : 604 pixels
    Display aspect ratio : 2.119
    Frame rate mode : Variable
    Frame rate : 23.976 (24000/1001) FPS
    Minimum frame rate : 23.974 FPS
    Maximum frame rate : 23.981 FPS
    Color space : YUV
    Chroma subsampling : 4: 2: 0
    Bit depth : 8 bits
    Scan type : Progressive
    Bits/(Pixel*Frame) : 0.132
    Stream size : 2.03 GiB (95%)
    Writing library : x264 core 157
    Encoding settings : cabac=1/ref=3/deblock=1: 0: 0/analyse=0x3: 0x113/me=hex/subme=7/psy=1/psy_rd=1.00: 0.00/mixed_ref=1/me_range=16/chroma_me=1/trellis=1/8x8dct=1/cqm=0/deadzone=21, 11/fast_pskip=1/chroma_qp_offset=-2/threads=12/lookahead_threads=2/sliced_threads=0/nr=0/decimate=1/interlaced=0/bluray_compat=0/constrained_intra=0/bframes=3/b_pyramid=2/b_adapt=1/b_bias=0/direct=1/weightb=1/open_gop=0/weightp=2/keyint=48/keyint_min=25/scenecut=0/intra_refresh=0/rc_lookahead=40/rc=crf/mbtree=1/crf=20.0/qcomp=0.60/qpmin=0/qpmax=69/qpstep=4/ip_ratio=1.40/aq=1: 1.00
    Audio
    ID : 2
    Format : AAC
    Format/Info : Advanced Audio Codec
    Format profile : LC
    Codec ID : 40
    Duration : 1 h 59 min
    Bit rate mode : Constant
    Bit rate : 128 kb/s
    Channel(s) : 2 channels
    Channel positions : Front: L R
    Sampling rate : 48.0 kHz
    Frame rate : 46.875 FPS (1024 SPF)
    Compression mode : Lossy
    Stream size : 109 MiB (5%)
    Default : Yes
    Alternate group : 1
    Скриншоты:


    Все одноименные релизы в Клубе
    Время раздачи: 24/7 (круглосуточно) (до появления первых 3-5 скачавших)


    Алита: Боевой ангел/Alita: Battle Angel (2019) TS [H.264] [MP4|1280x604] [AD]
    Рейтинг →
     (голосов: 1, оценка 3/5, голосовать можно 1 раз )

    Другие торренты по теме:

  • Алита: Боевой ангел / Alita: Battle Angel (2019) CamRip [MVO] [AD]
  • Пэт Кэдиган | Алита: Боевой ангел. Айрон сити (2019) [MP3]
  • Пэт Кэдиган | Алита. Боевой ангел. Айрон Сити (2019) [FB2]
  • Пэт Кэдиган | Алита. Боевой ангел (2019) [FB2]
  • Пэт Кэдиган | Алита. Боевой ангел (2019) [MP3]
  • Алита: Боевой ангел / Alita: Battle Angel (2019) WEBRip [MVO] [AD]
  • Алита: Боевой ангел / Alita: Battle Angel (2019) WEBRip [H.264 / 1080p-LQ] [MVO] [AD]
  • Алита: Боевой ангел / Alita: Battle Angel (2019) TC [UKR]


    • Комментарии (0):

      Информация

      Информация

        Посетители, находящиеся в группе Гости, не могут оставлять комментарии в данной новости.

        ↓ Меню




        ↓ Опрос

        Вы добавили сайт в закладки?
        Да
        Нет


        Top 10 за месяц (КПК и мобильные)