.
Авторизация | Регистрация

Торрент скачать бесплатно

  • support: webmaster@btracker.club
» » Дискотека 80-х полная версия (2018) HDTVRip [H.264] [MP4|1280x720] торрент скачать бесплатно


    Дискотека 80-х полная версия (2018) HDTVRip [H.264] [MP4|1280x720] торрент скачать бесплатно

    Дата: 26-02-2019, 05:00 | .torrent скачали: 1

    Дискотека 80-х полная версия (2018) HDTVRip [H.264] [MP4|1280x720]Производство: Россия/1 канал
    Жанр: Disco
    Актеры: Томас Андерс, C.C. Catch, Юрий Антонов, Boney M ft. Liz Mitchell, Кар-Мэн, Dschinghis Khan, Анжелика Варум, Дмитрий Маликов и др.

    Описание

    Главная дискотека страны состоялась уже в 17-й раз и, как и прежде, подарила зрителям невероятные визуальные эффекты, качественный звук и, конечно же, выступления самых любимых российских и зарубежных звезд диско на одной сцене. В этом году в Олимпийском выступили 17 исполнителей, в том числе Томас Андерс, C.C. Catch, Юрий Антонов, Boney M ft. Liz Mitchell, Кар-Мэн, Dschinghis Khan, Анжелика Варум, Дмитрий Маликов.
    Релиз от: Romanok68
    Продолжительность: 03: 35: 42
    Качество видео: HDTVRip
    Перевод: Отсутствует
    Видео: AVC/H.264, 1280х720, ~8000 Kbps
    Аудио: AAC, 2 ch, 192 Kbps

    Общее
    Полное имя : D: Дискотека 80-х 2018 (HDTVRIp 720p).mp4
    Формат : MPEG-4
    Профиль формата : JVT
    Идентификатор кодека : avc1 (avc1/mp42)
    Размер файла : 12, 4 Гбайт
    Продолжительность : 3 ч. 35 м.
    Режим общего битрейта : Переменный
    Общий поток : 8204 Кбит/сек
    Видео
    Идентификатор : 1
    Формат : AVC
    Формат/Информация : Advanced Video Codec
    Профиль формата : High@L3.1
    Настройки формата : CABAC/2 Ref Frames
    Параметр CABAC формата : Да
    Параметр RefFrames формата : 2 кадра
    Параметр GOP формата : M=3, N=30
    Идентификатор кодека : avc1
    Идентификатор кодека/Информация : Advanced Video Coding
    Продолжительность : 3 ч. 35 м.
    Вид битрейта : Переменный
    Битрейт : 8000 Кбит/сек
    Максимальный битрейт : 11, 0 Мбит/сек
    Ширина : 1280 пикселей
    Высота : 720 пикселей
    Соотношение сторон : 16: 9
    Режим частоты кадров : Постоянный
    Частота кадров : 25, 000 кадров/сек
    Цветовое пространство : YUV
    Субдискретизация насыщенности : 4: 2: 0
    Битовая глубина : 8 бит
    Тип развёртки : Прогрессивная
    Бит/(Пиксели*Кадры) : 0.347
    Размер потока : 12, 1 Гбайт (98%)
    Аудио
    Идентификатор : 2
    Формат : AAC
    Формат/Информация : Advanced Audio Codec
    Профиль формата : LC
    Идентификатор кодека : mp4a-40-2
    Продолжительность : 3 ч. 35 м.
    Продолжительность оригинала : 3 ч. 35 м.
    Вид битрейта : Постоянный
    Битрейт : 192 Кбит/сек
    Каналы : 2 канала
    Расположение каналов : Front: L R
    Частота : 48, 0 КГц
    Частота кадров : 46, 875 кадров/сек (1024 SPF)
    Метод сжатия : С потерями
    Размер потока : 296 Мбайт (2%)
    Размер потока оригинала : 296 Мбайт (2%)


    Дискотека 80-х полная версия (2018) HDTVRip [H.264] [MP4|1280x720]
    Рейтинг →
     (голосов: 1, оценка 3/5, голосовать можно 1 раз )

    Другие торренты по теме:

  • Большая Дискотека 80-х (Авторадио) (полная версия) (29.11.2014) [MP4|1280x720] <WEB-DLRip H.264> скачать через торрент бесплатно
  • Большая Дискотека 80-х полная версия (2014) HDTV [H.264 / 1080p] скачать через торрент бесплатно
  • Большая Дискотека 80-х полная версия.(Потреково) (2014) HDTV [H.264 / 720p] скачать через торрент бесплатно
  • Большая Дискотека 80-х полная версия (2014) HDTV [H.264 / 720p] скачать через торрент бесплатно
  • Дискотека 80-х Авторадио (полная версия) (2015.11.28) WEB-DL 720p скачать через торрент бесплатно
  • Дискотека 80-х полная версия (2015) HDTV [H.264 / 720p]
  • Дискотека 80-х полная версия (2015) HDTV [H.264 / 1080i]
  • Дискотека 80-х полная версия (2016) HDTVRIp [H.264] [MP4|1280x720]


    • Комментарии (0):

      Информация

      Информация

        Посетители, находящиеся в группе Гости, не могут оставлять комментарии в данной новости.

        ↓ Меню




        ↓ Опрос

        Вы добавили сайт в закладки?
        Да
        Нет


        Top 10 за месяц (КПК и мобильные)