.
Авторизация | Регистрация

Торрент скачать бесплатно

  • support: webmaster@btracker.club
» » Тайны перевала Дятлова (2016) WEB-DLRip [H.264] [MP4|1280x720] (серий 18 + дополнения) торрент скачать бесплатно


    Тайны перевала Дятлова (2016) WEB-DLRip [H.264] [MP4|1280x720] (серий 18 + дополнения) торрент скачать бесплатно

    Дата: 18-02-2019, 05:01 | .torrent скачали: 2

    Тайны перевала Дятлова (2016) WEB-DLRip [H.264] [MP4|1280x720] (серий 18 + дополнения)Производство: Россия
    Жанр: Документальный
    Режиссер: нет
    Актеры: нет

    Описание

    Как уже многим известно, а кому-то ещё может быть нет, в 2016 г. состоялась одна из крупнейших в современной истории экспедиций на перевал Дятлова.
    * 3 недели
    * большая программа исследований
    * команда исследователей, а не простых туристов
    * детальная видео-съёмка всех важных исторических мест
    * множество эксклюзива
    * самый большой в мире документальный сериал об экспедиции на перевал Дятлова как конечный результат (1000 минут в 18-ти сериях)
    Экспедиция не ставила перед собой задачи наделать громких сенсаций, не обещала разгадать какие-то тайны и поставить точку в этой загадочной истории. Основной целью было скорее отсеять многочисленные домыслы и показать всё в реальном свете, что и было сделано в сериале - от рассвета до заката зритель видит каждый день экспедиции в реальном времени - маршрут и его особенности, все связанные с группой Дятлова места и их подробное изучение, и конечно анализ и разбор гипотез произошедшего.
    Продолжительность: 19: 14: 07
    Качество видео: WEB-DLRip
    Перевод: отсутствует
    Субтитры: отсутствуют
    Видео: AVC/H.264, 1280x720, ~1308 Kbps
    Аудио: AAC, 2 ch, 125 Kbps

    Общее
    Полное имя : V: Гибель тургруппы ДятловаТайны перевала Дятлова. Экспедиция на перевал Дятлова. Сериал. Документальный фильм11. Тайны перевала Дятлова. Серия 8. В поисках истины. Спецвыпуск 2. Интервью.mp4
    Формат : MPEG-4
    Профиль формата : Base Media/Version 2
    Идентификатор кодека : mp42 (isom/mp42)
    Размер файла : 2, 20 Гбайт
    Продолжительность : 2 ч. 13 м.
    Режим общего битрейта : Переменный
    Общий поток : 2353 Кбит/сек
    Дата кодирования : UTC 2016-10-26 10: 10: 14
    Дата пометки : UTC 2016-10-26 10: 10: 14
    gsst : 0
    gstd : 8017200
    Видео
    Идентификатор : 1
    Формат : AVC
    Формат/Информация : Advanced Video Codec
    Профиль формата : Main@L3.1
    Настройки формата : CABAC/3 Ref Frames
    Параметр CABAC формата : Да
    Параметр RefFrames формата : 3 кадра
    Идентификатор кодека : avc1
    Идентификатор кодека/Информация : Advanced Video Coding
    Продолжительность : 2 ч. 13 м.
    Битрейт : 2223 Кбит/сек
    Ширина : 1280 пикселей
    Высота : 720 пикселей
    Соотношение сторон : 16: 9
    Режим частоты кадров : Постоянный
    Частота кадров : 29, 970 (30000/1001) кадров/сек
    Цветовое пространство : YUV
    Субдискретизация насыщенности : 4: 2: 0
    Битовая глубина : 8 бит
    Тип развёртки : Прогрессивная
    Бит/(Пиксели*Кадры) : 0.080
    Размер потока : 2, 07 Гбайт (94%)
    Заголовок : ISO Media file produced by Google Inc.
    Дата кодирования : UTC 2016-10-26 10: 10: 14
    Дата пометки : UTC 2016-10-26 10: 10: 14
    Цветовой диапазон : Limited
    Основные цвета : BT.709
    Характеристики трансфера : BT.709
    Коэффициенты матрицы : BT.709
    Codec configuration box : avcC
    Аудио
    Идентификатор : 2
    Формат : AAC LC
    Формат/Информация : Advanced Audio Codec Low Complexity
    Идентификатор кодека : mp4a-40-2
    Продолжительность : 2 ч. 13 м.
    Продолжительность оригинала : 2 ч. 13 м.
    Вид битрейта : Переменный
    Битрейт : 126 Кбит/сек
    Каналы : 2 канала
    Channel layout : L R
    Частота : 44, 1 КГц
    Частота кадров : 43, 066 кадра/сек (1024 SPF)
    Метод сжатия : С потерями
    Размер потока : 120 Мбайт (5%)
    Размер потока оригинала : 120 Мбайт (5%)
    Заголовок : ISO Media file produced by Google Inc.
    Дата кодирования : UTC 2016-10-26 10: 10: 14
    Дата пометки : UTC 2016-10-26 10: 10: 14


    Тайны перевала Дятлова (2016) WEB-DLRip [H.264] [MP4|1280x720] (серий 18 + дополнения)
    Рейтинг →
     (голосов: 1, оценка 5/5, голосовать можно 1 раз )

    Другие торренты по теме:

  • Нераскрытые тайны. Тайны Кремлевских концертов (2014) SATRip
  • Тайны истории: Тайны римских черепов / Secret History: The Mystery of the Crossrail Skulls (2016) HDTVRip [H.264 / 720p-LQ] (сезон 16, эпизод 2)
  • Газета | Приключения, тайны, чудеса. Специальный выпуск "Неразгаданные тайны истории: факты, преступления, сокровища (январь 2019) [PDF]
  • Тайны мира с Анной Чапман (2014.09.26) SATRip
  • Книжная серия | Тайны древних цивилизаций [121 книга] (1998-2011) [FB2, PDF, DJVU]
  • Хэйвен / Тайны Хейвена / Haven (2014) WEB-DLRip (Сезон 5, серии 1-3 из 26) (BaibaKo) (обновляемая)
  • Хэйвен / Тайны Хейвена / Haven (2014) WEB-DL [H.264 / 720p-LQ] (Сезон 5, серии 1-3 из 26) (BaibaKo) (обновляемая)
  • Загадки и тайны семьи Медичи / The Medici Files (2013) HDTVRip [H.264 / 720i-LQ] [1-2 серия из 2]


    • Комментарии (0):

      Информация

      Информация

        Посетители, находящиеся в группе Гости, не могут оставлять комментарии в данной новости.

        ↓ Меню




        ↓ Опрос

        Вы добавили сайт в закладки?
        Да
        Нет


        Top 10 за месяц (КПК и мобильные)