.
Авторизация | Регистрация

Торрент скачать бесплатно

  • support: webmaster@btracker.club
» » Синяя армада (2017) WEB-DL [H.264 / 720p-LQ] [MP4|1280x720] торрент скачать бесплатно


    Синяя армада (2017) WEB-DL [H.264 / 720p-LQ] [MP4|1280x720] торрент скачать бесплатно

    Дата: 15-02-2019, 05:00 | .torrent скачали: 2

    Синяя армада (2017) WEB-DL [H.264 / 720p-LQ] [MP4|1280x720]Телекомпания: Red Bull TV
    Жанр: Документальный

    Описание

    Фильм о создании, становлении и развитии команды КАМАЗ-мастер приуроченный к 30-летию коллектива.
    Продолжительность: 00: 30: 00
    Качество видео: WEB-DL
    Видео: AVC/H.264, 1280х720, ~1008 Kbps
    Аудио: AAC, 2 ch, 126 Kbps

    Общее
    Полное имя : \Синяя армада.mp4
    Формат : MPEG-4
    Профиль формата : Base Media/Version 2
    Идентификатор кодека : mp42 (isom/mp42)
    Размер файла : 244 Мбайт
    Продолжительность : 30 м. 0 с.
    Режим общего битрейта : Переменный
    Общий поток : 1137 Кбит/сек
    Дата кодирования : UTC 2018-02-02 09: 26: 28
    Дата пометки : UTC 2018-02-02 09: 26: 28
    gsst : 0
    gstd : 1800057
    Видео
    Идентификатор : 1
    Формат : AVC
    Формат/Информация : Advanced Video Codec
    Профиль формата : Main@L3.1
    Настройки формата : CABAC/3 Ref Frames
    Параметр CABAC формата : Да
    Параметр RefFrames формата : 3 кадра
    Идентификатор кодека : avc1
    Идентификатор кодека/Информация : Advanced Video Coding
    Продолжительность : 30 м. 0 с.
    Битрейт : 1008 Кбит/сек
    Ширина : 1280 пикселей
    Высота : 720 пикселей
    Соотношение сторон : 16: 9
    Режим частоты кадров : Постоянный
    Частота кадров : 25, 000 кадров/сек
    Цветовое пространство : YUV
    Субдискретизация насыщенности : 4: 2: 0
    Битовая глубина : 8 бит
    Тип развёртки : Прогрессивная
    Бит/(Пиксели*Кадры) : 0.044
    Размер потока : 216 Мбайт (89%)
    Заголовок : ISO Media file produced by Google Inc. Created on: 02/02/2018.
    Дата кодирования : UTC 2018-02-02 09: 26: 28
    Дата пометки : UTC 2018-02-02 09: 26: 28
    Цветовой диапазон : Limited
    Основные цвета : BT.709
    Характеристики трансфера : BT.709
    Коэффициенты матрицы : BT.709
    Codec configuration box : avcC
    Аудио
    Идентификатор : 2
    Формат : AAC LC
    Формат/Информация : Advanced Audio Codec Low Complexity
    Идентификатор кодека : mp4a-40-2
    Продолжительность : 30 м. 0 с.
    Вид битрейта : Переменный
    Битрейт : 126 Кбит/сек
    Каналы : 2 канала
    Channel layout : L R
    Частота : 44, 1 КГц
    Частота кадров : 43, 066 кадра/сек (1024 SPF)
    Метод сжатия : С потерями
    Размер потока : 26, 9 Мбайт (11%)
    Заголовок : ISO Media file produced by Google Inc. Created on: 02/02/2018.
    Дата кодирования : UTC 2018-02-02 09: 26: 28
    Дата пометки : UTC 2018-02-02 09: 26: 28
    Скриншоты:


    Все одноименные релизы в Клубе
    Время раздачи: 24/7 (до появления первых 3-5 скачавших)


    Синяя армада (2017) WEB-DL [H.264/720p-LQ] [MP4|1280x720]
    Рейтинг →
     (голосов: 1, оценка 3/5, голосовать можно 1 раз )

    Другие торренты по теме:

  • Земля. Территория загадок. Синяя гора. Тайна огненных шаров (2014) SATRip скачать через торрент бесплатно
  • Поёт ВИА Синяя птица (1978) SATRip скачать через торрент бесплатно
  • Вездеходы «Синяя птица» (1988) SATRip [H.264] [MP4|1280x720] скачать через торрент бесплатно
  • Галина Гончарова | Синяя птица счастья (2015) [MP3] скачать через торрент бесплатно
  • Теория заговора. Синяя птица (2015.11.28) SATRip скачать через торрент бесплатно
  • Амели Нотомб | Синяя Борода (2013) [MP3] скачать через торрент бесплатно
  • Синяя борода / Bluebeard (1972) DVDRip [H.264]
  • Blue Gender / Синяя порода [1999, TV, 26 эп.] DVDRip raw + eng


    • Комментарии (0):

      Информация

      Информация

        Посетители, находящиеся в группе Гости, не могут оставлять комментарии в данной новости.

        ↓ Меню




        ↓ Опрос

        Вы добавили сайт в закладки?
        Да
        Нет


        Top 10 за месяц (КПК и мобильные)