.
Авторизация | Регистрация

Торрент скачать бесплатно

  • support: webmaster@btracker.club
» » Аватар / Avatar (2009) BDRip [H.264] [Extended Cut] [VO] [MP4|1280x720] торрент скачать бесплатно


    Аватар / Avatar (2009) BDRip [H.264] [Extended Cut] [VO] [MP4|1280x720] торрент скачать бесплатно

    Дата: 15-02-2019, 05:00 | .torrent скачали: 3

    Аватар / Avatar (2009) BDRip [H.264] [Extended Cut] [VO] [MP4|1280x720]Производство: США, Великобритания/Twentieth Century Fox, Dune Entertainment, Ingenious Film Partners
    Жанр: Фантастика, Боевик, Драма, Приключения
    Режиссер: Джеймс Кэмерон
    Актеры: Сэм Уортингтон, Зои Салдана, Сигурни Уивер, Стивен Лэнг, Мишель Родригес, Джованни Рибизи, Джоэль Мур, Си Си Эйч Паундер, Уэс Студи, Лас Алонс

    Описание

    Джейк Салли — бывший морской пехотинец, прикованный к инвалидному креслу. Несмотря на немощное тело, Джейк в душе по-прежнему остается воином. Он получает задание совершить путешествие в несколько световых лет к базе землян на планете Пандора, где корпорации добывают редкий минерал, имеющий огромное значение для выхода Земли из энергетического кризиса.

    Возраст: 12+ (зрителям, достигшим 12 лет)
    Рейтинг MPAA: PG-13 (детям до 13 лет просмотр нежелателен)
    Продолжительность: 02: 58: 17
    Качество видео: BDRip
    Перевод: Одноголосый закадровый (VHSник )
    Автор перевода: Б. Страхов
    Реклама: В начале присутствует заставка с логотипом переводчика
    Субтитры: Русские, стилизованные форсированные (на речь Na\'Vi)
    Видео: AVC/H.264, 1280x720, ~4976 Kbps
    Аудио: AAC, 2 ch, ~320 Kbps - Русский

    General
    Complete name : E: Аватар - VHSник.mp4
    Format : MPEG-4
    Format profile : Base Media/Version 2
    Codec ID : mp42 (isom/mp42)
    File size : 6.44 GiB
    Duration : 2 h 58 min
    Overall bit rate mode : Variable
    Overall bit rate : 5 168 kb/s
    Encoded date : UTC 2019-02-05 09: 22: 17
    Tagged date : UTC 2019-02-05 09: 22: 17
    Video
    ID : 1
    Format : AVC
    Format/Info : Advanced Video Codec
    Format profile : High@L3.1
    Format settings : CABAC/1 Ref Frames
    Format settings, CABAC : Yes
    Format settings, ReFrames : 1 frame
    Format settings, GOP : M=1, N=30
    Codec ID : avc1
    Codec ID/Info : Advanced Video Coding
    Duration : 2 h 58 min
    Bit rate : 4 976 kb/s
    Width : 1 280 pixels
    Height : 720 pixels
    Display aspect ratio : 16: 9
    Frame rate mode : Constant
    Frame rate : 23.976 (24000/1001) FPS
    Color space : YUV
    Chroma subsampling : 4: 2: 0
    Bit depth : 8 bits
    Scan type : Progressive
    Bits/(Pixel*Frame) : 0.225
    Stream size : 6.20 GiB (96%)
    Language : English
    Encoded date : UTC 2019-02-05 09: 22: 18
    Tagged date : UTC 2019-02-05 09: 22: 18
    Codec configuration box : avcC
    Audio
    ID : 2
    Format : AAC LC
    Format/Info : Advanced Audio Codec Low Complexity
    Codec ID : mp4a-40-2
    Duration : 2 h 58 min
    Bit rate mode : Variable
    Bit rate : 192 kb/s
    Maximum bit rate : 538 kb/s
    Channel(s) : 2 channels
    Channel layout : L R
    Sampling rate : 48.0 kHz
    Frame rate : 46.875 FPS (1024 SPF)
    Compression mode : Lossy
    Stream size : 242 MiB (4%)
    Language : English
    Encoded date : UTC 2019-02-05 09: 22: 18
    Tagged date : UTC 2019-02-05 09: 22: 18
    Скриншоты:



    Аватар/Avatar (2009) BDRip [H.264] [Extended Cut] [VO] [MP4|1280x720]
    Рейтинг →
     (голосов: 1, оценка 3/5, голосовать можно 1 раз )

    Другие торренты по теме:

  • Аватар / Avatar (2009) BDRip [1080p] 3D [Вертикальная анаморфная стереопара] [hand made 60 fps]
  • Аватар / Avatar (2009) BDRip [720p] [Extended Cut]
  • Аватар / Avatar (2009) BDRip [1080p] [Extended Cut]
  • Аватар / Avatar (2009) BDRip [H.264] [Extended Cut] скачать через торрент бесплатно
  • Аватар / Avatar (2009) BDRip 3D [H.264 / 1080p] [Вертикальная анаморфная стереопара] [Extended Cut] скачать через торрент бесплатно
  • Аватар / Avatar (2009) HDRip (H.264 / 1080p-LQ) [Extended Cut] скачать через торрент бесплатно
  • Аватар / Avatar (2009) HDRip [H.264] [MP4|960х544] скачать через торрент бесплатно
  • Ак Батыр (Аватар) / Avatar (2014) BDRip


    • Комментарии (0):

      Информация

      Информация

        Посетители, находящиеся в группе Гости, не могут оставлять комментарии в данной новости.

        ↓ Меню




        ↓ Опрос

        Вы добавили сайт в закладки?
        Да
        Нет


        Top 10 за месяц (КПК и мобильные)