.
Авторизация | Регистрация
Хочешь лучшие торренты? Добавь свой email!
Добавить

Торрент скачать бесплатно

  • support: webmaster@btracker.club
» » Убийственный класс / Академия смерти / Deadly Class (2018) WEBRip [H.264] (сезон 1, серии 1 из 10) BaibaKo [MP4|720x304] [AD] (обновляемая) торрент скачать бесплатно


    Убийственный класс / Академия смерти / Deadly Class (2018) WEBRip [H.264] (сезон 1, серии 1 из 10) BaibaKo [MP4|720x304] [AD] (обновляемая) торрент скачать бесплатно

    Опубликовал: fregat | Дата: 28-01-2019, 05:01 | .torrent скачали: 0

    Убийственный класс / Академия смерти / Deadly Class (2018) WEBRip [H.264] (сезон 1, серии 1 из 10) BaibaKo [MP4|720x304] [AD] (обновляемая)Производство: США
    Жанр: боевик, триллер, драма, криминал
    Режиссер: Адам Кэйн, Эми Канаан Манн, Ли Толанд Кригер
    Актеры: Бенжамин Вэдсворт, Шиван Уильямс, Тэйлор Хиксон, Джек Джиллетт, Хуан Грэй, Лео Чианг, Кристофер Хейердал, Майк Ковач, Джаред Уорд, Бенедикт Вонг и др.

    Описание

    Бездомный подросток Маркус Лопес случайно попадает в элитную частную школу для убийц. Там детей киллеров и знаменитых преступников учат убивать, чтобы они продолжили дело родителей. Но Маркус совершенно не похож на своих одноклассников: всё, что происходит в школе, противоречит его принципам.

    Дата мировой премьеры: 20.12.2018
    Продолжительность: ~00: 54: 00 серия
    Качество видео: WEBRip
    Перевод: Многоголосый закадровый, профессиональный - BaibaKo
    Реклама: Раздача с рекламными вставками (текст+аудио)
    Видео: AVC/H.264, 720x304 (16: 9), ~1497 Kbps
    Аудио 1: AAC, 2 ch, 215 Kbps - русский, многоголосый закадровый
    Аудио 2: AAC, 2 ch, 155 Kbps - английский
    General
    Complete name : Deadly.Class.s01e01.WEBRip.x264.Rus.Eng.BaibaKo.tv.mp4
    Format : MPEG-4
    Format profile : Base Media
    Codec ID : isom (isom/avc1)
    File size : 731 MiB
    Duration : 54 min 36 s
    Overall bit rate mode : Variable
    Overall bit rate : 1 872 kb/s
    Encoded date : UTC 2018-12-23 16: 51: 53
    Tagged date : UTC 2018-12-23 16: 51: 53
    Writing application : StaxRip 1.7.0.6
    Video
    ID : 1
    Format : AVC
    Format/Info : Advanced Video Codec
    Format profile : Baseline@L3
    Format settings : 3 Ref Frames
    Format settings, CABAC : No
    Format settings, ReFrames : 3 frames
    Codec ID : avc1
    Codec ID/Info : Advanced Video Coding
    Duration : 54 min 36 s
    Bit rate : 1 497 kb/s
    Maximum bit rate : 3 573 kb/s
    Width : 720 pixels
    Height : 304 pixels
    Display aspect ratio : 2.35: 1
    Frame rate mode : Constant
    Frame rate : 23.976 (24000/1001) FPS
    Color space : YUV
    Chroma subsampling : 4: 2: 0
    Bit depth : 8 bits
    Scan type : Progressive
    Bits/(Pixel*Frame) : 0.285
    Stream size : 585 MiB (80%)
    Encoded date : UTC 2018-12-23 16: 51: 53
    Tagged date : UTC 2018-12-23 16: 52: 06
    Codec configuration box : avcC
    Audio #1
    ID : 2
    Format : AAC LC
    Format/Info : Advanced Audio Codec Low Complexity
    Codec ID : mp4a-40-2
    Duration : 54 min 36 s
    Bit rate mode : Variable
    Bit rate : 215 kb/s
    Maximum bit rate : 328 kb/s
    Channel(s) : 2 channels
    Channel layout : L R
    Sampling rate : 48.0 kHz
    Frame rate : 46.875 FPS (1024 SPF)
    Compression mode : Lossy
    Stream size : 84.0 MiB (11%)
    Language : Russian
    Encoded date : UTC 2018-12-23 16: 41: 42
    Tagged date : UTC 2018-12-23 16: 52: 06
    Audio #2
    ID : 3
    Format : AAC LC
    Format/Info : Advanced Audio Codec Low Complexity
    Codec ID : mp4a-40-2
    Duration : 54 min 36 s
    Bit rate mode : Variable
    Bit rate : 155 kb/s
    Maximum bit rate : 330 kb/s
    Channel(s) : 2 channels
    Channel layout : L R
    Sampling rate : 48.0 kHz
    Frame rate : 46.875 FPS (1024 SPF)
    Compression mode : Lossy
    Stream size : 60.6 MiB (8%)
    Language : English
    Encoded date : UTC 2018-12-23 16: 41: 39
    Tagged date : UTC 2018-12-23 16: 52: 06


    Убийственный класс/Академия смерти/Deadly Class (2018) WEBRip [H.264] (сезон 1, серии 1 из 10) BaibaKo [MP4|720x304] [AD] (обновляемая)
    Рейтинг →
     (голосов: 1, оценка 4/5, голосовать можно 1 раз )

    Другие торренты по теме:

  • Убийственный класс / Академия смерти / Deadly Class (2018) WEB-DLRip [H.264 / 1080p-LQ] (сезон 1, серии 1 из 10) LostFilm (обновляемая)
  • Убийственный класс / Академия смерти / Deadly Class (2018) WEB-DLRip (сезон 1, серии 1-2 из 10) Jaskier (обновляемая) [AD]
  • Убийственный класс / Академия смерти / Deadly Class (2018) WEB-DLRip (сезон 1, серии 1-2 из 10) IdeaFilm (обновляемая) [AD]
  • Убийственный класс / Академия смерти / Deadly Class (2018) WEB-DL [H.264 / 1080p-LQ] (сезон 1, серии 1-3 из 10) TVShows (обновляемая)
  • Убийственный класс / Академия смерти / Deadly Class (2018) WEBRip [H.265 / 1080p-LQ] (сезон 1, серии 1-4 из 10) BaibaKo [AD] (обновляемая)


    • Комментарии (0):

      Информация

      Информация

        Посетители, находящиеся в группе Гости, не могут оставлять комментарии в данной новости.

        ↓ Меню




        ↓ Опрос

        Вы добавили сайт в закладки?
        Да
        Нет


        Top 10 за месяц (КПК и мобильные)