.
Авторизация | Регистрация
Хочешь лучшие торренты? Добавь свой email!
Добавить

Торрент скачать бесплатно

  • support: webmaster@btracker.club
» » Давай сражаться, призрак! / Ssawooja gwishina (Lets Fight Ghost) (2016) WEBRip [H.264] (серии 1-16 из 16) SoftBox [MP4|1280x720] торрент скачать бесплатно


    Давай сражаться, призрак! / Ssawooja gwishina (Lets Fight Ghost) (2016) WEBRip [H.264] (серии 1-16 из 16) SoftBox [MP4|1280x720] торрент скачать бесплатно

    Опубликовал: fregat | Дата: 16-01-2019, 05:00 | .torrent скачали: 1

    Давай сражаться, призрак! / Ssawooja gwishina (Lets Fight Ghost) (2016) WEBRip [H.264] (серии 1-16 из 16) SoftBox [MP4|1280x720]Производство: Южная Корея
    Жанр: Комедия, Фэнтези
    Режиссер: Пак Джун Хва
    Актеры: Квон Юль, Ок Тэк Ён, Ким Со Хён

    Описание

    Главный герой обладает сверхъестественной способностью не только видеть призраков, но и изгонять их. Поэтому с удовольствием оказывает помощь тем, кто нуждается в услугах экзорциста. Но однажды он сталкивается с призраком школьницы и во время исполнения обряда случайно целует ее. Да так, что искры летят…

    Возраст: 12+ (зрителям, достигшим 12 лет)
    Рейтинг MPAA: PG-13 (детям до 13 лет просмотр нежелателен)
    Релиз от: NNMClub
    Продолжительность: ~00: 55: 00 серия
    Качество видео: WEBRip
    Перевод: Двуголосый закадровый, любительский - Студия SoftBox
    Видео: AVC/H.264, 1280x720, ~1992 Kbps
    Аудио: AAC, 2 ch, 128 Kbps

    Полное имя : C: Lets fight Ghost1.mp4
    Формат : MPEG-4
    Профиль формата : Base Media/Version 2
    Идентификатор кодека : mp42 (mp42/isom)
    Размер файла : 905 Мбайт
    Продолжительность : 59 м.
    Режим общего битрейта : Переменный
    Общий поток : 2120 Кбит/сек
    Программа кодирования : mp4creator 1.6.1d
    Видео
    Идентификатор : 1
    Формат : AVC
    Формат/Информация : Advanced Video Codec
    Профиль формата : High@L3
    Параметр CABAC формата : Нет
    Параметр ReFrames формата : 1 кадр
    Идентификатор кодека : avc1
    Идентификатор кодека/Информация : Advanced Video Coding
    Продолжительность : 59 м.
    Битрейт : 1992 Кбит/сек
    Ширина : 1280 пикселей
    Высота : 720 пикселей
    Соотношение сторон : 16: 9
    Режим частоты кадров : Переменный
    Частота кадров : 29, 970 (29970/1000) кадров/сек
    Минимальная частота кадров : 29, 960 кадров/сек
    Максимальная частота кадров : 29, 970 кадров/сек
    Цветовое пространство : YUV
    Субдискретизация насыщенности : 4: 2: 0
    Битовая глубина : 8 бит
    Тип развёртки : Прогрессивная
    Бит/(Пиксели*Кадры) : 0.072
    Размер потока : 851 Мбайт (94%)
    Язык : English
    Аудио
    Идентификатор : 2
    Формат : AAC
    Формат/Информация : Advanced Audio Codec
    Профиль формата : LC
    Идентификатор кодека : 40
    Продолжительность : 59 м.
    Продолжительность оригинала : 59 м.
    Вид битрейта : Переменный
    Битрейт : 126 Кбит/сек
    Максимальный битрейт : 248 Кбит/сек
    Каналы : 2 канала
    Расположение каналов : Front: L R
    Частота : 44, 1 КГц
    Частота кадров : 43, 066 кадра/сек (1024 spf)
    Метод сжатия : С потерями
    Размер потока : 53, 6 Мбайт (6%)
    Размер потока оригинала : 53, 6 Мбайт (6%)
    Язык : English
    Скриншоты:


    Все одноименные релизы в Клубе
    Время раздачи: с 11 до 18 мск (до появления первых 3-5 скачавших)


    Давай сражаться, призрак!/Ssawooja gwishina (Lets Fight Ghost) (2016) WEBRip [H.264] (серии 1-16 из 16) SoftBox [MP4|1280x720]
    Рейтинг →
     (голосов: 1, оценка 4/5, голосовать можно 1 раз )

    Другие торренты по теме:

  • Go!Go!575 | Давай-давай! 5-7-5 [2014, TV, 4 + 1] BDrip 1080p Hi10p raw
  • VA - Давай, наливай! (2014) [MP3|256 кб / с]<Шансон> скачать через торрент бесплатно
  • Давай знакомиться. Фильм / Hello Ladies: The Movie (2014) HDTVRip [H.264] [VO]
  • Давай знакомиться. Фильм / Hello Ladies: The Movie (2014) HDTVRip скачать через торрент бесплатно
  • Давай знакомиться: Фильм (ТВ) / Hello Ladies: The Movie (2014) HDTV [H.264 / 1080i] скачать через торрент бесплатно
  • Давай знакомиться. Фильм / Hello Ladies: The Movie (2014) HDTVRip скачать через торрент бесплатно
  • Аркадий Хоралов - Давай попробуем вернуть / Ариведерчи (2010) 2CD [FLAC|image+.cue]<Pop> скачать через торрент бесплатно
  • Давай спасем Гарри / Lets Get Harry (1986) WEB-DLRip скачать через торрент бесплатно


    • Комментарии (0):

      Информация

      Информация

        Посетители, находящиеся в группе Гости, не могут оставлять комментарии в данной новости.

        ↓ Меню




        ↓ Опрос

        Вы добавили сайт в закладки?
        Да
        Нет


        Top 10 за месяц (КПК и мобильные)