.
Авторизация | Регистрация
Хочешь лучшие торренты? Добавь свой email!
Добавить

Торрент скачать бесплатно

  • support: webmaster@btracker.club
» » Идущие к черту (2017–2019) WEBRip [H.264] (серии 1-3 из 3) [MP4|1280x720] торрент скачать бесплатно


    Идущие к черту (2017–2019) WEBRip [H.264] (серии 1-3 из 3) [MP4|1280x720] торрент скачать бесплатно

    Опубликовал: fregat | Дата: 13-01-2019, 05:00 | .torrent скачали: 250

    Идущие к черту (2017–2019) WEBRip [H.264] (серии 1-3 из 3) [MP4|1280x720]Производство: Россия
    Жанр: Документальный

    Описание

    Мастер ясновидения, энерготерапевт, белый маг и шаман-целитель, кудесники с большой дороги чистят карму и кошельки. Как устроен колдовской бизнес и почём нынче звонок на тот свет? Эти люди называют себя ясновидящими и не гнушаются обнадёживать доверчивых граждан, рассказывая о том, что могут запросто связаться с умершими родственниками любого и передать все послания и пожелания с Земли на небеса. Почему обманщики не сидят за решёткой и как в XXI веке находятся те, кто доверяет мошенникам? Расследование Бориса Соболева.
    Продолжительность: 00: 38: 47 | 01: 08: 14 | 01: 05: 32
    Качество видео: WEBRip
    Субтитры: отсутствуют
    Видео: AVC/H.264, 1280x720 (16: 9), ~455 kbps
    Аудио: AAC, 2 ch, 128 Kbps

    Общее
    Полное имя : C: Идущие к черту1. Идущие к черту.mp4
    Формат : MPEG-4
    Профиль формата : Base Media/Version 2
    Идентификатор кодека : mp42 (isom/mp42)
    Размер файла : 163 Мбайт
    Продолжительность : 38 м. 47 с.
    Режим общего битрейта : Переменный
    Общий поток : 586 Кбит/сек
    Дата кодирования : UTC 2019-01-08 15: 04: 43
    Дата пометки : UTC 2019-01-08 15: 04: 43
    gsst : 0
    gstd : 2327127
    Видео
    Идентификатор : 1
    Формат : AVC
    Формат/Информация : Advanced Video Codec
    Профиль формата : Main@L3.1
    Настройки формата : CABAC/3 Ref Frames
    Параметр CABAC формата : Да
    Параметр RefFrames формата : 3 кадра
    Идентификатор кодека : avc1
    Идентификатор кодека/Информация : Advanced Video Coding
    Продолжительность : 38 м. 47 с.
    Битрейт : 455 Кбит/сек
    Ширина : 1280 пикселей
    Высота : 720 пикселей
    Соотношение сторон : 16: 9
    Режим частоты кадров : Постоянный
    Частота кадров : 25, 000 кадров/сек
    Цветовое пространство : YUV
    Субдискретизация насыщенности : 4: 2: 0
    Битовая глубина : 8 бит
    Тип развёртки : Прогрессивная
    Бит/(Пиксели*Кадры) : 0.020
    Размер потока : 126 Мбайт (78%)
    Заголовок : ISO Media file produced by Google Inc. Created on: 01/08/2019.
    Дата кодирования : UTC 2019-01-08 15: 04: 43
    Дата пометки : UTC 2019-01-08 15: 04: 43
    Цветовой диапазон : Limited
    Основные цвета : BT.709
    Характеристики трансфера : BT.709
    Коэффициенты матрицы : BT.709
    Codec configuration box : avcC
    Аудио
    Идентификатор : 2
    Формат : AAC LC
    Формат/Информация : Advanced Audio Codec Low Complexity
    Идентификатор кодека : mp4a-40-2
    Продолжительность : 38 м. 47 с.
    Вид битрейта : Переменный
    Битрейт : 128 Кбит/сек
    Каналы : 2 канала
    Channel layout : L R
    Частота : 44, 1 КГц
    Частота кадров : 43, 066 кадра/сек (1024 SPF)
    Метод сжатия : С потерями
    Размер потока : 35, 5 Мбайт (22%)
    Скриншоты:


    Все одноименные релизы в Клубе
    Время раздачи: по возможности (до появления первых 3-5 скачавших)


    Идущие к черту (2017–2019) WEBRip [H.264] (серии 1-3 из 3) [MP4|1280x720]
    Рейтинг →
     (голосов: 1, оценка 5/5, голосовать можно 1 раз )

    Другие торренты по теме:

  • Специальный корреспондент. Идущие к черту (2017.05.22) SATRip
  • Специальный корреспондент. Идущие к черту (2017.05.22) HDTVRip [H.264] [MP4|1280x720]


    • Комментарии (0):

      Информация

      Информация

        Посетители, находящиеся в группе Гости, не могут оставлять комментарии в данной новости.

        ↓ Меню




        ↓ Опрос

        Вы добавили сайт в закладки?
        Да
        Нет


        Top 10 за месяц (КПК и мобильные)