.
Авторизация | Регистрация
Хочешь лучшие торренты? Добавь свой email!
Добавить

Торрент скачать бесплатно

  • support: webmaster@btracker.club
» » Коммандос-ниндзя / Commando Ninja (2018) WEBRip [H.264] [MP4|1920x1080] [VO] торрент скачать бесплатно


    Коммандос-ниндзя / Commando Ninja (2018) WEBRip [H.264] [MP4|1920x1080] [VO] торрент скачать бесплатно

    Опубликовал: fregat | Дата: 31-12-2018, 05:01 | .torrent скачали: 0

    Коммандос-ниндзя / Commando Ninja (2018) WEBRip [H.264] [MP4|1920x1080] [VO]Производство: Франция/Benjamin Combes, Melbas 801
    Жанр: Боевик, Комедия
    Режиссер: Benjamin Combes
    Актеры: Eric Carlesi, Philippe Allier, Stéphane Asensio, Olivier Dobremel, Thémann Fagour, Cécile Fargues, Thyra Hann Phonephet, Charlotte Poncin, Anaëlle Rincent

    Описание

    Джон Хантер-ветеран вьетнамского зеленого берета, наполовину коммандос, наполовину ниндзя, дочь которого была похищена секретной организацией ниндзя во главе с центральноамериканским диктатором, который хочет создать новый мировой порядок во времени.

    Дата мировой премьеры: 18 ноября 2018
    Продолжительность: 01: 08: 45
    Качество видео: WEBRip
    Перевод: Одноголосый закадровый (VHSник )
    Автор перевода: Б. Страхов
    Реклама: в начале присутствует заставка с логотипом переводчика
    Видео: AVC/H.264, 1920x1080, ~2558 Kbps
    Аудио: AAC, 2 ch, 128 Kbps

    General
    Complete name : D: VHSникНиндзя-Коммандос - Фильм на русском - VHSник.mp4
    Format : MPEG-4
    Format profile : Base Media
    Codec ID : isom (isom/iso2/avc1/mp41)
    File size : 1.23 GiB
    Duration : 1 h 8 min
    Overall bit rate : 2 558 kb/s
    Writing application : Lavf57.2.100
    Video
    ID : 1
    Format : AVC
    Format/Info : Advanced Video Codec
    Format profile : High@L4
    Format settings, CABAC : Yes
    Format settings, ReFrames : 3 frames
    Codec ID : avc1
    Codec ID/Info : Advanced Video Coding
    Duration : 1 h 8 min
    Bit rate : 2 425 kb/s
    Width : 1 920 pixels
    Height : 1 080 pixels
    Display aspect ratio : 16: 9
    Frame rate mode : Constant
    Frame rate : 24.000 FPS
    Color space : YUV
    Chroma subsampling : 4: 2: 0
    Bit depth : 8 bits
    Scan type : Progressive
    Bits/(Pixel*Frame) : 0.049
    Stream size : 1.16 GiB (95%)
    Color range : Limited
    Color primaries : BT.709
    Transfer characteristics : BT.709
    Matrix coefficients : BT.709
    Audio
    ID : 2
    Format : AAC
    Format/Info : Advanced Audio Codec
    Format profile : LC
    Codec ID : 40
    Duration : 1 h 8 min
    Bit rate mode : Constant
    Bit rate : 128 kb/s
    Channel(s) : 2 channels
    Channel positions : Front: L R
    Sampling rate : 44.1 kHz
    Frame rate : 43.066 FPS (1024 spf)
    Compression mode : Lossy
    Stream size : 63.0 MiB (5%)
    Language : English
    Default : Yes
    Alternate group : 1


    Коммандос-ниндзя/Commando Ninja (2018) WEBRip [H.264] [MP4|1920x1080] [VO]
    Рейтинг →
     (голосов: 1, оценка 3/5, голосовать можно 1 раз )

    Другие торренты по теме:



      Комментарии (0):

      Информация

      Информация

        Посетители, находящиеся в группе Гости, не могут оставлять комментарии в данной новости.

        ↓ Меню




        ↓ Опрос

        Вы добавили сайт в закладки?
        Да
        Нет


        Top 10 за месяц (КПК и мобильные)