.
Авторизация | Регистрация
Хочешь лучшие торренты? Добавь свой email!
Добавить

Торрент скачать бесплатно

  • support: webmaster@btracker.club
» » Мажор (2018) WEBRip [H.264] (сезон 3, серии 1-16 из 16) [MP4|640x360] торрент скачать бесплатно


    Мажор (2018) WEBRip [H.264] (сезон 3, серии 1-16 из 16) [MP4|640x360] торрент скачать бесплатно

    Опубликовал: xnvwisivuk | Дата: 25-12-2018, 13:55 | .torrent скачали: 0

    Мажор (2018) WEBRip [H.264] (сезон 3, серии 1-16 из 16) [MP4|640x360]Производство: Россия/Продюсерский центр Среда
    Жанр: драма, криминал
    Режиссер: Игорь Твердохлебов
    Актеры: Павел Прилучный, Карина Разумовская, Любовь Аксенова, Дмитрий Шевченко, Александр Обласов, Дмитрий Лысенков, Игорь Черневич, Михаил Елисеев, Андрей Погребинский, Вадим Дубровин и др.

    Описание

    Игорь Соколовский давно перестал быть тем Мажором, для которого служба в полиции – вынужденная ссылка. Давняя смерть матери и недавнее убийство отца – два события, определившие его дальнейшую жизнь – могут быть раскрыты во многом благодаря этой службе. Мажор растёт как профессионал, ежедневно работая над раскрытием различных преступлений.. .

    Возраст: 16+ (зрителям, достигшим 16 лет)
    Дата российской премьеры: 29 октября 2018 (Первый канал)
    Продолжительность: ~00: 48: 00 серия
    Качество видео: WEBRip
    Видео: AVC/H.264, 640x360 (16: 9), ~416 Kbps
    Аудио: AAC, 2 ch, 96 Kbps

    Общее
    Полное имя : D: Мои фильмыMazhor_S3_1-16iz16_2018_XviD_WEBRip mp4Mazhor_S3_01.mp4
    Формат : MPEG-4
    Профиль формата : Base Media
    Идентификатор кодека : isom (isom/avc1)
    Размер файла : 176 Мбайт
    Продолжительность : 47 м. 39 с.
    Режим общего битрейта : Переменный
    Общий поток : 516 Кбит/сек
    Дата кодирования : UTC 2018-11-17 11: 25: 37
    Дата пометки : UTC 2018-11-17 11: 25: 37
    Видео
    Идентификатор : 1
    Формат : AVC
    Формат/Информация : Advanced Video Codec
    Профиль формата : High@L3
    Настройки формата : CABAC/4 Ref Frames
    Параметр CABAC формата : Да
    Параметр RefFrames формата : 4 кадра
    Идентификатор кодека : avc1
    Идентификатор кодека/Информация : Advanced Video Coding
    Продолжительность : 47 м. 39 с.
    Битрейт : 416 Кбит/сек
    Максимальный битрейт : 4267 Кбит/сек
    Ширина : 640 пикселей
    Высота : 360 пикселей
    Соотношение сторон : 16: 9
    Режим частоты кадров : Постоянный
    Частота кадров : 25, 000 кадров/сек
    Цветовое пространство : YUV
    Субдискретизация насыщенности : 4: 2: 0
    Битовая глубина : 8 бит
    Тип развёртки : Прогрессивная
    Бит/(Пиксели*Кадры) : 0.072
    Размер потока : 142 Мбайт (81%)
    Библиотека кодирования : x264 core 155 r2901 7d0ff22
    Настройки программы : cabac=1/ref=3/deblock=1: 0: 0/analyse=0x3: 0x113/me=hex/subme=7/psy=1/psy_rd=1.00: 0.00/mixed_ref=1/me_range=16/chroma_me=1/trellis=1/8x8dct=1/cqm=0/deadzone=21, 11/fast_pskip=1/chroma_qp_offset=-2/threads=1/lookahead_threads=1/sliced_threads=0/nr=0/decimate=1/interlaced=0/bluray_compat=0/constrained_intra=0/bframes=3/b_pyramid=2/b_adapt=1/b_bias=0/direct=1/weightb=1/open_gop=0/weightp=2/keyint=250/keyint_min=25/scenecut=40/intra_refresh=0/rc_lookahead=40/rc=2pass/mbtree=1/bitrate=416/ratetol=1.0/qcomp=0.60/qpmin=0/qpmax=69/qpstep=4/cplxblur=20.0/qblur=0.5/ip_ratio=1.40/aq=1: 1.00
    Дата кодирования : UTC 2018-11-17 11: 25: 37
    Дата пометки : UTC 2018-11-17 11: 25: 47
    Codec configuration box : avcC
    Аудио
    Идентификатор : 2
    Формат : AAC LC
    Формат/Информация : Advanced Audio Codec Low Complexity
    Идентификатор кодека : mp4a-40-2
    Продолжительность : 47 м. 39 с.
    Вид битрейта : Переменный
    Битрейт : 96, 0 Кбит/сек
    Максимальный битрейт : 100 Кбит/сек
    Каналы : 2 канала
    Channel layout : L R
    Частота : 48, 0 КГц
    Частота кадров : 46, 875 кадров/сек (1024 SPF)
    Метод сжатия : С потерями
    Размер потока : 32, 7 Мбайт (19%)
    Язык : English
    Дата кодирования : UTC 2018-11-17 10: 48: 56
    Дата пометки : UTC 2018-11-17 11: 25: 47
    Скриншоты:


    Все одноименные релизы в Клубе
    Время раздачи: 07: 00 до 23: 00 (до появления первых 3-5 скачавших)


    Мажор (2018) WEBRip [H.264] (сезон 3, серии 1-16 из 16) [MP4|640x360]
    Рейтинг →
     (голосов: 1, оценка 3/5, голосовать можно 1 раз )

    Другие торренты по теме:

  • Мажор (2016) WEBRip (сезон 2, серий 1-12 из 12)
  • Мажор (2018) WEBRip (сезон 3, серии 1-16 из 16)


    • Комментарии (0):

      Информация

      Информация

        Посетители, находящиеся в группе Гости, не могут оставлять комментарии в данной новости.

        ↓ Меню




        ↓ Опрос

        Вы добавили сайт в закладки?
        Да
        Нет


        Top 10 за месяц (КПК и мобильные)