.
Авторизация | Регистрация

Торрент скачать бесплатно

  • support: webmaster@btracker.club
» » Безумная свадьба / Скажене весілля (2018) WEB-DLRip [H.264] [MP4|720x324] [Ukr] торрент скачать бесплатно


    Безумная свадьба / Скажене весілля (2018) WEB-DLRip [H.264] [MP4|720x324] [Ukr] торрент скачать бесплатно

    Дата: 22-12-2018, 05:01 | .torrent скачали: 67

    Безумная свадьба / Скажене весілля (2018) WEB-DLRip [H.264] [MP4|720x324] [Ukr]Производство: Украина
    Жанр: Комедия, Приключения, Семейный
    Режиссер: Влад Дикий
    Продюсер: Ирина Костюк, Надежда Коротушка, Юрий Горбунов
    Актеры: Назар Заднепровский, Жимми Воа, Полина Василина, Леся Самаева, Александр Кобзарь, Вера Кобзарь, Инна Приходько, Арам Арзуманян, Алексей Потапенко, Дмитрий Монатик

    Описание

    Директор районного краеведческого музея Василий Середюк, отправляя дочь Катю во Францию на учебу, не ожидал такого поворота — месяц назад она сообщила, что выходит замуж за французского врача — кардиохирурга Франсуа. Середюки — европейская семья! — этот лозунг услышал в районе каждый лично от Василия. Каково же было его удивление, когда он увидел, что желанный европейский зять — афрофранцуз. Организовать свадьбу так, чтобы она не состоялась, — кажется прекрасной идеей. Но когда на пути стоит настоящая любовь — неизвестно, удастся ли такой план реализовать.

    Возраст: 12+ (зрителям, достигшим 12 лет)
    Рейтинг MPAA: G (нет возрастных ограничений)
    Дата мировой премьеры: 04 октября 2018
    Дата российской премьеры: 04 октября 2018
    Продолжительность: 01: 31: 50
    Качество видео: WEB-DLRip
    Язык: Украинский
    Видео: AVC/H.264, 720х324, ~512 Kbps
    Аудио: AAC, 2 ch, 76 Kbps

    Полное имя : C: BezSvadba2018.mp4
    Формат : MPEG-4
    Профиль формата : Base Media
    Идентификатор кодека : isom (isom/iso2/avc1/mp41)
    Размер файла : 389 Мбайт
    Продолжительность : 1 ч. 31 м.
    Режим общего битрейта : Переменный
    Общий поток : 591 Кбит/сек
    Программа кодирования : Lavf56.25.101
    Видео
    Идентификатор : 1
    Формат : AVC
    Формат/Информация : Advanced Video Codec
    Профиль формата : High@L3
    Параметр CABAC формата : Да
    Параметр ReFrames формата : 4 кадра
    Идентификатор кодека : avc1
    Идентификатор кодека/Информация : Advanced Video Coding
    Продолжительность : 1 ч. 31 м.
    Битрейт : 512 Кбит/сек
    Ширина : 720 пикселей
    Высота : 324 пикселя
    Соотношение сторон : 2, 222
    Режим частоты кадров : Постоянный
    Частота кадров : 24, 000 кадра/сек
    Цветовое пространство : YUV
    Субдискретизация насыщенности : 4: 2: 0
    Битовая глубина : 8 бит
    Тип развёртки : Прогрессивная
    Бит/(Пиксели*Кадры) : 0.091
    Размер потока : 335 Мбайт (86%)
    Библиотека кодирования : x264 core 146
    Настройки программы : cabac=1/ref=2/deblock=1: 0: 0/analyse=0x3: 0x113/me=hex/subme=6/psy=1/psy_rd=1.00: 0.00/mixed_ref=1/me_range=16/chroma_me=1/trellis=1/8x8dct=1/cqm=0/deadzone=21, 11/fast_pskip=1/chroma_qp_offset=-2/threads=48/lookahead_threads=2/sliced_threads=0/nr=0/decimate=1/interlaced=0/bluray_compat=0/constrained_intra=0/bframes=3/b_pyramid=2/b_adapt=1/b_bias=0/direct=1/weightb=1/open_gop=0/weightp=1/keyint=50/keyint_min=5/scenecut=40/intra_refresh=0/rc_lookahead=30/rc=2pass/mbtree=1/bitrate=512/ratetol=97.5/qcomp=0.60/qpmin=0/qpmax=69/qpstep=4/cplxblur=20.0/qblur=0.5/ip_ratio=1.40/aq=1: 1.00
    Аудио
    Идентификатор : 2
    Формат : AAC
    Формат/Информация : Advanced Audio Codec
    Профиль формата : LC
    Идентификатор кодека : 40
    Продолжительность : 1 ч. 31 м.
    Duration_LastFrame : -3 мс.
    Вид битрейта : Переменный
    Битрейт : 76, 0 Кбит/сек
    Максимальный битрейт : 128 Кбит/сек
    Каналы : 2 канала
    Channel(s)_Original : 1 канал
    Расположение каналов : Front: C
    Частота : 44, 1 КГц
    Частота кадров : 43, 066 кадра/сек
    Метод сжатия : С потерями
    Размер потока : 49, 9 Мбайт (13%)
    Default : Да
    Alternate group : 1
    Скриншоты:


    Все одноименные релизы в Клубе
    Время раздачи: С 18: 00-23: 00 (до появления первых 3-5 скачавших)


    Безумная свадьба/Скажене весілля (2018) WEB-DLRip [H.264] [MP4|720x324] [Ukr]
    Рейтинг →
     (голосов: 1, оценка 4/5, голосовать можно 1 раз )

    Другие торренты по теме:

  • Безумная свадьба / Quest-ce quon a fait au Bon Dieu (2014) HDRip [Line]
  • Безумная свадьба / Quest-ce quon a fait au Bon Dieu (2014) HDRip [576p] iPad [Line]
  • Безумная свадьба / Quest-ce quon a fait au Bon Dieu (2014) HDRip [H.264] [Line]
  • Безумная свадьба / Quest-ce quon a fait au Bon Dieu (2014) HDRip [Line]
  • Безумная свадьба / Quest-ce quon a fait au Bon Dieu (2014) BDRip [720p] [Line]
  • Безумная свадьба / Quest-ce quon a fait au Bon Dieu (2014) BDRip [H.264] скачать через торрент бесплатно
  • Безумная свадьба / Quest-ce quon a fait au Bon Dieu (2014) BDRip [H.264 / 720p]
  • Безумная свадьба / Quest-ce quon a fait au Bon Dieu (2014) BDRip [H.264 / 1080p]


    • Комментарии (0):

      Информация

      Информация

        Посетители, находящиеся в группе Гости, не могут оставлять комментарии в данной новости.

        ↓ Меню




        ↓ Опрос

        Вы добавили сайт в закладки?
        Да
        Нет


        Top 10 за месяц (КПК и мобильные)