.
Авторизация | Регистрация

Торрент скачать бесплатно

  • support: webmaster@btracker.club
» » Король Лев / The Lion King (1994) BDRip [H.264] [MP4|1280x720] [VO] торрент скачать бесплатно


    Король Лев / The Lion King (1994) BDRip [H.264] [MP4|1280x720] [VO] торрент скачать бесплатно

    Дата: 7-12-2018, 05:00 | .torrent скачали: 3

    Король Лев / The Lion King (1994) BDRip [H.264] [MP4|1280x720] [VO]Производство: США/Walt Disney Feature Animation/Walt Disney Pictures
    Жанр: Мультфильм, Мюзикл, Драма, Комедия, Приключения, Семейный
    Режиссер: Роджер Аллерс, Роб Минкофф
    Актеры: Джонатан Тейлор Томас, Мэттью Бродерик, Джеймс Эрл Джонс, Джереми Айронс, Мойра Келли, Никета Калам, Эрни Сабелла, Натан Лэйн, Роберт Гийом, Роуэн Аткинсон

    Описание

    У величественного Короля-Льва Муфасы рождается наследник по имени Симба. Уже в детстве любознательный малыш становится жертвой интриг своего завистливого дяди Шрама, мечтающего о власти.
    Симба познаёт горе утраты, предательство и изгнание, но в конце концов обретает верных друзей и находит любимую. Закалённый испытаниями, он в нелёгкой борьбе отвоёвывает своё законное место в Круге жизни, осознав, что значит быть настоящим Королём.

    Возраст: 0+ (для любой зрительской аудитории)
    Рейтинг MPAA: G (нет возрастных ограничений)
    Продолжительность: 01: 28: 23
    Качество видео: BDRip
    Перевод: Одноголосый закадровый, любительский(VHSник)
    Автор перевода: Б.Страхов
    Реклама: Присутствует заставка с логотипом переводчика
    Видео: AVC/H.264, 1280x720, ~1962 Kbps
    Аудио: AAC, 2 ch, 192 Kbps

    General
    Complete name : D: VHSникКороль Лев - VHSник.mp4
    Format : MPEG-4
    Format profile : Base Media/Version 2
    Codec ID : mp42 (isom/mp42)
    File size : 1.33 GiB
    Duration : 1 h 28 min
    Overall bit rate mode : Variable
    Overall bit rate : 2 155 kb/s
    Encoded date : UTC 2018-12-03 13: 36: 20
    Tagged date : UTC 2018-12-03 13: 36: 20
    Video
    ID : 1
    Format : AVC
    Format/Info : Advanced Video Codec
    Format profile : High@L3.1
    Format settings, CABAC : Yes
    Format settings, ReFrames : 1 frame
    Format settings, GOP : M=1, N=30
    Codec ID : avc1
    Codec ID/Info : Advanced Video Coding
    Duration : 1 h 28 min
    Bit rate : 1 962 kb/s
    Width : 1 280 pixels
    Height : 720 pixels
    Display aspect ratio : 16: 9
    Frame rate mode : Constant
    Frame rate : 23.976 (24000/1001) FPS
    Color space : YUV
    Chroma subsampling : 4: 2: 0
    Bit depth : 8 bits
    Scan type : Progressive
    Bits/(Pixel*Frame) : 0.089
    Stream size : 1.21 GiB (91%)
    Language : English
    Encoded date : UTC 2018-12-03 13: 36: 22
    Tagged date : UTC 2018-12-03 13: 36: 22
    Audio
    ID : 2
    Format : AAC
    Format/Info : Advanced Audio Codec
    Format profile : LC
    Codec ID : 40
    Duration : 1 h 28 min
    Bit rate mode : Variable
    Bit rate : 192 kb/s
    Maximum bit rate : 538 kb/s
    Channel(s) : 2 channels
    Channel positions : Front: L R
    Sampling rate : 48.0 kHz
    Frame rate : 46.875 FPS (1024 spf)
    Compression mode : Lossy
    Stream size : 120 MiB (9%)
    Language : English
    Encoded date : UTC 2018-12-03 13: 36: 22
    Tagged date : UTC 2018-12-03 13: 36: 22


    Король Лев/The Lion King (1994) BDRip [H.264] [MP4|1280x720] [VO]
    Рейтинг →
     (голосов: 1, оценка 3/5, голосовать можно 1 раз )

    Другие торренты по теме:

  • Король Лев / The Lion King (1994) BDRip [1080p] 3D [Вертикальная анаморфная стереопара]
  • Король Лев / The Lion King (1994) BDRip [H.265 / 1080p]
  • Лев Лео, король джунглей / Leo the Lion: King of the Jungle (1994) DVDRip
  • Король Лев / The Lion King (1994) BDRip [H.264 / 1080p-LQ]
  • Король Лев / The Lion King (1994-2004) Blu-Ray [1080p] [Трилогия]
  • Король Лев / The Lion King (1994) UHD BDRemux [H.265 / 2160p] [4K, HDR, 10-bit]
  • Король Лев / The Lion King (1994-2004) BDRemux [H.264 / 1080p] (Трилогия)
  • Король Лев / The Lion King (2019) WEBRip [H.264 / 2160p] [4K] [Тизер] [EN]


    • Комментарии (0):

      Информация

      Информация

        Посетители, находящиеся в группе Гости, не могут оставлять комментарии в данной новости.

        ↓ Меню




        ↓ Опрос

        Вы добавили сайт в закладки?
        Да
        Нет


        Top 10 за месяц (КПК и мобильные)