.
Авторизация | Регистрация

Торрент скачать бесплатно

  • support: webmaster@btracker.club
» » Побег из тюрьмы Даннемора / Escape at Dannemora (2018) WEB-DLRip [H.264] (сезон 1, серия 1-2 из 7) LostFilm [MP4|1280x720] (обновляемая) торрент скачать бесплатно


    Побег из тюрьмы Даннемора / Escape at Dannemora (2018) WEB-DLRip [H.264] (сезон 1, серия 1-2 из 7) LostFilm [MP4|1280x720] (обновляемая) торрент скачать бесплатно

    Дата: 29-11-2018, 05:00 | .torrent скачали: 2

    Побег из тюрьмы Даннемора / Escape at Dannemora (2018) WEB-DLRip [H.264] (сезон 1, серия 1-2 из 7) LostFilm [MP4|1280x720] (обновляемая)Производство: США/Red Hour Films
    Жанр: Драма, Криминал
    Режиссер: Бен Стиллер
    Актеры: Бенисио Дель Торо, Пол Дано, Патриша Аркетт, Бонни Хант и др

    Описание

    Криминальная драма канала Showtime основана на реальных событиях, произошедших в провинциальном городке Даннемора, штат Нью-Йорк, в 2015 году. Тогда из местной тюрьмы максимально строгого режима впервые за всю многолетнюю историю ее существования сбежали двое заключенных, спровоцировав панику среди населения и шумиху в прессе.

    Дата мировой премьеры: 18 ноября 2018
    Продолжительность: ~01: 03: 00 серия
    Качество видео: WEB-DLRip
    Перевод: Многоголосый закадровый, профессиональный - LostFilm
    Видео: AVC/H.264, 1280x720, ~4000 Kbps
    Аудио: AAC, 2 ch, ~265 Kbps - русский (многоголосый закадровый)

    Общее
    Полное имя : Escape_at_Dannemora_s1e1_720p/Escape_at_Dannemora_s1e1_720p.mp4
    Формат : MPEG-4
    Профиль формата : Base Media
    Идентификатор кодека : isom (isom)
    Размер файла : 1, 90 Гбайт
    Продолжительность : 1 ч. 3 м.
    Режим общего битрейта : Переменный
    Общий поток : 4271 Кбит/сек
    Коллекция : Побег из Даннеморы
    Сезон : 1
    Альбом : Побег из Даннеморы, Сезон 1
    Альбом/Исполнитель : Побег из Даннеморы
    Часть : 1
    Часть/Положение : 1
    Трек : Часть 1
    Трек/Положение : 1
    Исполнитель : Побег из Даннеморы
    Жанр : Drama
    Тип содержимого : TV Show
    Дата записи : 2018
    Дата кодирования : UTC 2018-11-20 21: 07: 03
    Дата пометки : UTC 2018-11-20 21: 07: 03
    Программа кодирования : Yamb 2.1.0.0 http://yamb.unite-video.com/LostCoder
    Авторское право : LostFilm.TV (c)
    Обложка : Yes
    Примечание : Ричард Мэтт и Дэвид Суэт-заключенные Клинтонской тюрьмы максимально строгого режима. Ричард водит дружбу с одним из охранников.
    Part_ID : 101
    rati : (Binary)
    Видео
    Идентификатор : 1
    Формат : AVC
    Формат/Информация : Advanced Video Codec
    Профиль формата : High@L4.1
    Параметр CABAC формата : Да
    Параметр ReFrames формата : 4 кадра
    Идентификатор кодека : avc1
    Идентификатор кодека/Информация : Advanced Video Coding
    Продолжительность : 1 ч. 3 м.
    Битрейт : 4000 Кбит/сек
    Максимальный битрейт : 12, 3 Мбит/сек
    Ширина : 1280 пикселей
    Высота : 720 пикселей
    Соотношение сторон : 16: 9
    Режим частоты кадров : Постоянный
    Частота кадров : 23, 976 (24000/1001) кадра/сек
    Частота кадров в оригинале : 23, 976 (23976/1000) кадра/сек
    Цветовое пространство : YUV
    Субдискретизация насыщенности : 4: 2: 0
    Битовая глубина : 8 бит
    Тип развёртки : Прогрессивная
    Бит/(Пиксели*Кадры) : 0.181
    Размер потока : 1, 78 Гбайт (94%)
    Заголовок : Imported with GPAC 0.4.6-DEV (internal rev. 5)
    Библиотека кодирования : x264 core 112 r1834 a51816a
    Настройки программы : cabac=1/ref=4/deblock=1: -3: -2/analyse=0x3: 0x113/me=hex/subme=7/psy=1/psy_rd=1.00: 0.00/mixed_ref=1/me_range=16/chroma_me=1/trellis=1/8x8dct=1/cqm=0/deadzone=21, 11/fast_pskip=1/chroma_qp_offset=-2/threads=12/sliced_threads=0/nr=0/decimate=1/interlaced=0/constrained_intra=0/bframes=5/b_pyramid=2/b_adapt=1/b_bias=0/direct=1/weightb=1/open_gop=0/weightp=2/keyint=250/keyint_min=25/scenecut=40/intra_refresh=0/rc_lookahead=40/rc=2pass/mbtree=1/bitrate=4000/ratetol=1.0/qcomp=0.60/qpmin=0/qpmax=51/qpstep=4/cplxblur=20.0/qblur=0.5/vbv_maxrate=10000/vbv_bufsize=256000/ip_ratio=1.40/aq=1: 1.00/nal_hrd=none
    Дата кодирования : UTC 2018-11-19 05: 36: 43
    Дата пометки : UTC 2018-11-20 21: 07: 29
    Аудио
    Идентификатор : 2
    Формат : AAC
    Формат/Информация : Advanced Audio Codec
    Профиль формата : LC
    Идентификатор кодека : 40
    Продолжительность : 1 ч. 3 м.
    Вид битрейта : Переменный
    Битрейт : 265 Кбит/сек
    Максимальный битрейт : 333 Кбит/сек
    Каналы : 2 канала
    Расположение каналов : Front: L R
    Частота : 48, 0 КГц
    Частота кадров : 46, 875 кадров/сек (1024 spf)
    Метод сжатия : С потерями
    Размер потока : 122 Мбайт (6%)
    Дата кодирования : UTC 2018-11-20 21: 07: 28
    Дата пометки : UTC 2018-11-20 21: 07: 29


    Побег из тюрьмы Даннемора/Escape at Dannemora (2018) WEB-DLRip [H.264] (сезон 1, серия 1-2 из 7) LostFilm [MP4|1280x720] (обновляемая)
    Рейтинг →
     (голосов: 1, оценка 2/5, голосовать можно 1 раз )

    Другие торренты по теме:

  • Побег из тюрьмы: Финальный побег / Prison Break: The Final Break (2009) BDRip [H.264 / 720p]
  • Побег из тюрьмы: Коллекция / Prison Break: Collection (2005 - 2009) BDRip 720p [Все сезоны + Финальный побег]
  • Far Cry 4: Escape From Durgesh Prison / Побег из тюрьмы Дургеш (2015) [Ru / Multi] (1.7.0) DLC / Repack [Patch+] скачать через торрент бесплатно
  • Prison Break: Lockdown / Побег из Тюрьмы 1.01 [En] скачать через торрент бесплатно
  • Побег из женской тюрьмы / Le evase - Storie di sesso e di violenze / Escape from Womens Prison (1978) DVDRip
  • Побег из женской тюрьмы / Le evase - Storie di sesso e di violenze (1978) DVDRip [H.264] [VO]
  • Побег из тюрьмы Даннемора / Escape at Dannemora (2018) WEB-DLRip (сезон 1, серии 1 из 7) LostFilm (обновляемая)
  • Побег из тюрьмы Даннемора / Escape at Dannemora (2018) WEBRip [H.264 / 1080p-LQ] (сезон 1, серии 1 из 7) TVShows (обновляемая)


    • Комментарии (0):

      Информация

      Информация

        Посетители, находящиеся в группе Гости, не могут оставлять комментарии в данной новости.

        ↓ Меню




        ↓ Опрос

        Вы добавили сайт в закладки?
        Да
        Нет


        Top 10 за месяц (КПК и мобильные)