.
Авторизация | Регистрация
Хочешь лучшие торренты? Добавь свой email!
Добавить

Торрент скачать бесплатно

  • support: webmaster@btracker.club
» » Барыги: Мексика / Narcos: Mexico (2018) WEB-DLRip [H.264] (сезон 1, серия 1-2 из 10) LostFilm [MP4|1280x720] (обновляемая) торрент скачать бесплатно


    Барыги: Мексика / Narcos: Mexico (2018) WEB-DLRip [H.264] (сезон 1, серия 1-2 из 10) LostFilm [MP4|1280x720] (обновляемая) торрент скачать бесплатно

    Опубликовал: fregat | Дата: 27-11-2018, 05:00 | .torrent скачали: 3

    Барыги: Мексика / Narcos: Mexico (2018) WEB-DLRip [H.264] (сезон 1, серия 1-2 из 10) LostFilm [MP4|1280x720] (обновляемая)Производство: США
    Жанр: Драма, Криминал, Боевик
    Режиссер: Карло Бернард, Крис Бренкето, Даг Мир
    Актеры: Алисса Диас, Диего Луна, Майкл Пенья, Тереса Руис, Кларк Фриман, и др

    Описание

    Бывший полицейский, а ныне мелкий торговец марихуаной Мигель Анхель Феликс Гальярдо пробивает себе путь к руководству преступной организации и стремится построить свою империю.

    Дата мировой премьеры: 16 ноября 2018
    Релиз от: LostFilm.TV
    Продолжительность: ~00: 58: 00
    Качество видео: WEB-DLRip
    Перевод: Многоголосый закадровый, профессиональный - LostFilm
    Видео: AVC/H.264, 1280x720, ~4000 Kbps
    Аудио: AAC, 2 ch, 277 Kbps - русский (многоголосый закадровый)

    Общее
    Полное имя : Narcos_Mexico_720p/Narcos_Mexico_s01e01_720p.mp4
    Формат : MPEG-4
    Профиль формата : Base Media
    Идентификатор кодека : isom (isom)
    Размер файла : 1, 74 Гбайт
    Продолжительность : 58 м. 2 с.
    Режим общего битрейта : Переменный
    Общий поток : 4281 Кбит/сек
    Коллекция : Барыги: Мексика
    Сезон : 1
    Альбом : Барыги: Мексика, Сезон 1
    Альбом/Исполнитель : Барыги: Мексика
    Часть : 1
    Часть/Положение : 1
    Трек : Камелот
    Трек/Положение : 1
    Исполнитель : Барыги: Мексика
    Жанр : 57/Drama
    Тип содержимого : TV Show
    Дата записи : 2018
    Дата кодирования : UTC 2018-11-18 22: 07: 31
    Дата пометки : UTC 2018-11-18 22: 07: 31
    Программа кодирования : Yamb 2.1.0.0 http://yamb.unite-video.com/LostCoder
    Авторское право : LostFilm.TV (c)
    Обложка : Yes
    Примечание : Бывший полицейский, а ныне мелкий торговец марихуаной Мигель Анхель Феликс Гальярдо пробивает себе путь к руководству преступной организации и стремится построить свою империю.
    Part_ID : 101
    rati : (Binary)
    Видео
    Идентификатор : 1
    Формат : AVC
    Формат/Информация : Advanced Video Codec
    Профиль формата : High@L4.1
    Параметр CABAC формата : Да
    Параметр ReFrames формата : 4 кадра
    Идентификатор кодека : avc1
    Идентификатор кодека/Информация : Advanced Video Coding
    Продолжительность : 58 м. 2 с.
    Битрейт : 4000 Кбит/сек
    Максимальный битрейт : 25, 2 Мбит/сек
    Ширина : 1280 пикселей
    Высота : 720 пикселей
    Соотношение сторон : 16: 9
    Режим частоты кадров : Постоянный
    Частота кадров : 23, 976 (24000/1001) кадра/сек
    Частота кадров в оригинале : 23, 976 (23976/1000) кадра/сек
    Цветовое пространство : YUV
    Субдискретизация насыщенности : 4: 2: 0
    Битовая глубина : 8 бит
    Тип развёртки : Прогрессивная
    Бит/(Пиксели*Кадры) : 0.181
    Размер потока : 1, 62 Гбайт (93%)
    Заголовок : Imported with GPAC 0.4.6-DEV (internal rev. 5)
    Библиотека кодирования : x264 core 112 r1834 a51816a
    Настройки программы : cabac=1/ref=4/deblock=1: -3: -2/analyse=0x3: 0x113/me=hex/subme=7/psy=1/psy_rd=1.00: 0.00/mixed_ref=1/me_range=16/chroma_me=1/trellis=1/8x8dct=1/cqm=0/deadzone=21, 11/fast_pskip=1/chroma_qp_offset=-2/threads=6/sliced_threads=0/nr=0/decimate=1/interlaced=0/constrained_intra=0/bframes=5/b_pyramid=2/b_adapt=1/b_bias=0/direct=1/weightb=1/open_gop=0/weightp=2/keyint=250/keyint_min=25/scenecut=40/intra_refresh=0/rc_lookahead=40/rc=2pass/mbtree=1/bitrate=4000/ratetol=1.0/qcomp=0.60/qpmin=0/qpmax=51/qpstep=4/cplxblur=20.0/qblur=0.5/vbv_maxrate=10000/vbv_bufsize=256000/ip_ratio=1.40/aq=1: 1.00/nal_hrd=none
    Дата кодирования : UTC 2018-11-16 13: 12: 05
    Дата пометки : UTC 2018-11-18 22: 07: 57
    Аудио
    Идентификатор : 2
    Формат : AAC
    Формат/Информация : Advanced Audio Codec
    Профиль формата : LC
    Идентификатор кодека : 40
    Продолжительность : 58 м. 2 с.
    Вид битрейта : Переменный
    Битрейт : 277 Кбит/сек
    Максимальный битрейт : 343 Кбит/сек
    Каналы : 2 канала
    Расположение каналов : Front: L R
    Частота : 48, 0 КГц
    Частота кадров : 46, 875 кадров/сек (1024 spf)
    Метод сжатия : С потерями
    Размер потока : 115 Мбайт (6%)
    Дата кодирования : UTC 2018-11-18 22: 07: 55
    Дата пометки : UTC 2018-11-18 22: 07: 57


    Барыги: Мексика/Narcos: Mexico (2018) WEB-DLRip [H.264] (сезон 1, серия 1-2 из 10) LostFilm [MP4|1280x720] (обновляемая)
    Рейтинг →
     (голосов: 1, оценка 5/5, голосовать можно 1 раз )

    Другие торренты по теме:

  • Нарко: Мексика / Барыги: Мексика / Narcos: Mexico (2018) WEBRip (сезон 1, серии 1 из 10) LostFilm (обновляемая)
  • Нарко: Мексика / Барыги: Мексика / Narcos: Mexico (2018) WEBRip [H.264 / 1080p] (сезон 1, серии 1-10 из 10) GostFilm [AD]
  • Нарко: Мексика / Барыги: Мексика / Narcos: Mexico (2018) WEB-DLRip [H.264 / 1080p-LQ] (сезон 1, серии 1-2 из 10) LostFilm (обновляемая)
  • Нарко: Мексика / Барыги: Мексика / Narcos: Mexico (2018) WEB-DLRip [H.264 / 1080p-LQ] (сезон 1, серии 1-10 из 10) Jaskier [AD]
  • Нарко: Мексика / Барыги: Мексика / Narcos: Mexico (2018) WEB-DLRip [H.264 / 1080p] (сезон 1, серии 1-5 из 10) NewStudio (обновляемая) [AD]
  • Нарко: Мексика / Барыги: Мексика / Narcos: Mexico (2018) WEBRip [H.264 / 720p-LQ] (сезон 1, серии 1-7 из 10) NewStudio (обновляемая) [AD]
  • Нарко: Мексика / Барыги: Мексика / Narcos: Mexico (2018) WEBRip [H.264 / 1080p] (сезон 1, серии 1-6 из 10) TVShows (обновляемая)


    • Комментарии (0):

      Информация

      Информация

        Посетители, находящиеся в группе Гости, не могут оставлять комментарии в данной новости.

        ↓ Меню




        ↓ Опрос

        Вы добавили сайт в закладки?
        Да
        Нет


        Top 10 за месяц (КПК и мобильные)