.
Авторизация | Регистрация

Торрент скачать бесплатно

  • support: webmaster@btracker.club
» » NGW: TerraMater / Дикая природа Уганды / Wild Uganda (2018) WEB-DLRip [H.264] [MP4|1280x720] торрент скачать бесплатно


    NGW: TerraMater / Дикая природа Уганды / Wild Uganda (2018) WEB-DLRip [H.264] [MP4|1280x720] торрент скачать бесплатно

    Дата: 27-11-2018, 05:00 | .torrent скачали: 1

    NGW: TerraMater / Дикая природа Уганды / Wild Uganda (2018) WEB-DLRip [H.264] [MP4|1280x720]Производство: США/Cosmos Factory, NDR Naturfilm, National Geographic Channel, Studio Hamburg DocLights, Terra Mater Factual Studios
    Жанр: Документальный, природа, флора, фауна
    Режиссер: Харальд Покисер
    Участники: Дюрт Лессевски

    Описание

    После многих лет браконьерства и гражданских войн; национальные парки Уганды удалось восстановить. И в них в настоящее время процветает дикий животный мир. Это настоящий триумф выживания.

    Продолжительность: 00: 43: 58
    Качество видео: WEB-DLRip
    Перевод: Дублированный
    Видео: AVC/H.264, 1280x720, ~1024 Kbps
    Аудио: AAC, 2 ch, 128 Kbps

    Общее
    Полное имя : Wild_Uganda_(2018)_720p/Wild Uganda (2018)_720p.mp4
    Формат : MPEG-4
    Профиль формата : Base Media
    Идентификатор кодека : isom (isom/iso2/avc1/mp41)
    Размер файла : 360 Мбайт
    Продолжительность : 43 м. 58 с.
    Общий поток : 1145 Кбит/сек
    Программа кодирования : Lavf56.25.101
    Видео
    Идентификатор : 1
    Формат : AVC
    Формат/Информация : Advanced Video Codec
    Профиль формата : High@L3.1
    Параметр CABAC формата : Да
    Параметр ReFrames формата : 4 кадра
    Идентификатор кодека : avc1
    Идентификатор кодека/Информация : Advanced Video Coding
    Продолжительность : 43 м. 58 с.
    Битрейт : 1024 Кбит/сек
    Ширина : 1280 пикселей
    Высота : 720 пикселей
    Соотношение сторон : 16: 9
    Режим частоты кадров : Постоянный
    Частота кадров : 25, 000 кадров/сек
    Цветовое пространство : YUV
    Субдискретизация насыщенности : 4: 2: 0
    Битовая глубина : 8 бит
    Тип развёртки : Прогрессивная
    Бит/(Пиксели*Кадры) : 0.044
    Размер потока : 318 Мбайт (88%)
    Библиотека кодирования : x264 core 146
    Настройки программы : cabac=1/ref=2/deblock=1: 0: 0/analyse=0x3: 0x113/me=hex/subme=6/psy=1/psy_rd=1.00: 0.00/mixed_ref=1/me_range=16/chroma_me=1/trellis=1/8x8dct=1/cqm=0/deadzone=21, 11/fast_pskip=1/chroma_qp_offset=-2/threads=48/lookahead_threads=5/sliced_threads=0/nr=0/decimate=1/interlaced=0/bluray_compat=0/constrained_intra=0/bframes=3/b_pyramid=2/b_adapt=1/b_bias=0/direct=1/weightb=1/open_gop=0/weightp=1/keyint=50/keyint_min=5/scenecut=40/intra_refresh=0/rc_lookahead=30/rc=2pass/mbtree=1/bitrate=1024/ratetol=97.5/qcomp=0.60/qpmin=0/qpmax=69/qpstep=4/cplxblur=20.0/qblur=0.5/ip_ratio=1.40/aq=1: 1.00
    Аудио
    Идентификатор : 2
    Формат : AAC
    Формат/Информация : Advanced Audio Codec
    Профиль формата : LC
    Идентификатор кодека : 40
    Продолжительность : 43 м. 58 с.
    Duration_LastFrame : -2 мс.
    Вид битрейта : Постоянный
    Битрейт : 128 Кбит/сек
    Каналы : 2 канала
    Расположение каналов : Front: L R
    Частота : 44, 1 КГц
    Частота кадров : 43, 066 кадра/сек (1024 spf)
    Метод сжатия : С потерями
    Размер потока : 40, 3 Мбайт (11%)
    Default : Да
    Alternate group : 1
    Скриншоты:


    Все одноименные релизы в Клубе
    Время раздачи: с 23: 00 до 08: 00 по возможности (до появления первых 3-5 скачавших)


    NGW: TerraMater/Дикая природа Уганды/Wild Uganda (2018) WEB-DLRip [H.264] [MP4|1280x720]
    Рейтинг →
     (голосов: 1, оценка 5/5, голосовать можно 1 раз )

    Другие торренты по теме:

  • NGW: TerraMater. Дикая природа Уганды / Wild Uganda (2018) HDTV [H.264 / 1080i-LQ] (Сезон 1, эпизод 268)


    • Комментарии (0):

      Информация

      Информация

        Посетители, находящиеся в группе Гости, не могут оставлять комментарии в данной новости.

        ↓ Меню




        ↓ Опрос

        Вы добавили сайт в закладки?
        Да
        Нет


        Top 10 за месяц (КПК и мобильные)