.
Авторизация | Регистрация

Торрент скачать бесплатно

  • support: webmaster@btracker.club
» » Звёздные войны: Сопротивление / Star Wars: Resistance (2018) (Сезон 1, серии 1-7 из 8) WEB-DLRip [H.264] LostFilm [MP4|1280x720] (обновляемая) торрент скачать бесплатно


    Звёздные войны: Сопротивление / Star Wars: Resistance (2018) (Сезон 1, серии 1-7 из 8) WEB-DLRip [H.264] LostFilm [MP4|1280x720] (обновляемая) торрент скачать бесплатно

    Дата: 27-11-2018, 05:00 | .torrent скачали: 0

    Звёздные войны: Сопротивление / Star Wars: Resistance (2018) (Сезон 1, серии 1-7 из 8) WEB-DLRip [H.264] LostFilm [MP4|1280x720] (обновляемая)Производство: США, Lucasfilm Ltd, DisneyXD
    Жанр: Фантастика, Анимация, Приключения
    Режиссер: Стюарт Ли, Боско ЭнДжи, Sergio Paez
    Актеры: Крис Фрил, Алексис Лэнг, Джош Бренер, Сьюзи МакГрат, Bucket, Скотт Лоуренс, Ди Брэдли Бейкер, Джонатан Липоу, Това Фелдшух, Мирна Веласко

    Описание

    Кадзуда Сионо — молодой пилот, недавно вступивший в ряды Сопротивления под командованием генерала Леи. Несмотря на юный возраст, Кадзуде поручают важное задание — разведать, чем занимается Первый орден.

    Дата мировой премьеры: 7 октября 2018
    Продолжительность: ~00: 43: 00 серия
    Качество видео: WEB-DLRip
    Перевод: Многоголосый, закадровый, профессиональныйLostFilm
    Видео: AVC/H.264, 1280x720, ~1024 Kbps
    Аудио: AAC, 2 ch, 128 Kbps

    Общее
    Полное имя : Звёздные войны Сопротивление/Star Wars Resistance (2018)_s01e01_720p.mp4
    Формат : MPEG-4
    Профиль формата : Base Media
    Идентификатор кодека : isom (isom/iso2/avc1/mp41)
    Размер файла : 361 Мбайт
    Продолжительность : 43 м. 33 с.
    Общий поток : 1158 Кбит/сек
    Программа кодирования : Lavf56.40.101
    Видео
    Идентификатор : 1
    Формат : AVC
    Формат/Информация : Advanced Video Codec
    Профиль формата : High@L3.1
    Параметр CABAC формата : Да
    Параметр ReFrames формата : 4 кадра
    Идентификатор кодека : avc1
    Идентификатор кодека/Информация : Advanced Video Coding
    Продолжительность : 43 м. 33 с.
    Битрейт : 1024 Кбит/сек
    Ширина : 1280 пикселей
    Высота : 720 пикселей
    Соотношение сторон : 16: 9
    Режим частоты кадров : Постоянный
    Частота кадров : 23, 976 (24000/1001) кадра/сек
    Цветовое пространство : YUV
    Субдискретизация насыщенности : 4: 2: 0
    Битовая глубина : 8 бит
    Тип развёртки : Прогрессивная
    Бит/(Пиксели*Кадры) : 0.046
    Размер потока : 319 Мбайт (88%)
    Библиотека кодирования : x264 core 148
    Настройки программы : cabac=1/ref=2/deblock=1: 0: 0/analyse=0x3: 0x113/me=hex/subme=6/psy=1/psy_rd=1.00: 0.00/mixed_ref=1/me_range=16/chroma_me=1/trellis=1/8x8dct=1/cqm=0/deadzone=21, 11/fast_pskip=1/chroma_qp_offset=-2/threads=22/lookahead_threads=3/sliced_threads=0/nr=0/decimate=1/interlaced=0/bluray_compat=0/constrained_intra=0/bframes=3/b_pyramid=2/b_adapt=1/b_bias=0/direct=1/weightb=1/open_gop=0/weightp=1/keyint=50/keyint_min=5/scenecut=40/intra_refresh=0/rc_lookahead=30/rc=2pass/mbtree=1/bitrate=1024/ratetol=97.5/qcomp=0.60/qpmin=0/qpmax=69/qpstep=4/cplxblur=20.0/qblur=0.5/ip_ratio=1.40/aq=1: 1.00
    Аудио
    Идентификатор : 2
    Формат : AAC
    Формат/Информация : Advanced Audio Codec
    Профиль формата : LC
    Идентификатор кодека : 40
    Продолжительность : 43 м. 33 с.
    Duration_LastFrame : -21 мс.
    Вид битрейта : Постоянный
    Битрейт : 128 Кбит/сек
    Каналы : 2 канала
    Расположение каналов : Front: L R
    Частота : 44, 1 КГц
    Частота кадров : 43, 066 кадра/сек (1024 spf)
    Метод сжатия : С потерями
    Размер потока : 39, 9 Мбайт (11%)
    Default : Да
    Alternate group : 1
    Внимание! Раздача ведётся путём добавления новых серий; при каждом добавлении создаётся новый торрент.
    Чтобы начать докачку новой серии, пользователям необходимо сделать следующее:
    1. Остановить скачивание;
    2. Удалить старый торрент у себя из клиента (старые серии удалять не надо);
    3. Скачать новый торрент и запустить его у себя в клиенте вместо старого, при этом указать клиенту путь в старую папку куда и должно происходить скачивание новых серий. Ваш клиент при этом должен произвести хеширование (проверку) старой папки и будет докачивать только те серии, которых у вас ещё нет. Старые серии при этом не удаляются, а продолжают раздаваться! Eсли вы уже удалили старые серии, то предотвратить повторную закачку старых серий можно, отжав галочку в соответствующих местах при запуске нового торрента.
    Скриншоты:


    Все одноименные релизы в Клубе
    Время раздачи: с 23: 00 до 08: 00 по возможности (до появления первых 3-5 скачавших)


    Звёздные войны: Сопротивление/Star Wars: Resistance (2018) (Сезон 1, серии 1-7 из 8) WEB-DLRip [H.264] LostFilm [MP4|1280x720] (обновляемая)
    Рейтинг →
     (голосов: 1, оценка 3/5, голосовать можно 1 раз )

    Другие торренты по теме:

  • Звёздные войны. Эпизод 5: Империя наносит ответный удар / Star Wars: Episode V - The Empire Strikes Back / Despecialized Edition Theatrical reconstruction HD (1980) BDRip скачать через торрент бесплатно
  • Звёздные войны: Повстанцы / Star Wars: Rebels (2014) WEB-DLRip (Сезон 1, Серий 3 из 16) (LostFilm)
  • Финес и Ферб. Звёздные войны / Phineas and Ferb: Star Wars (2014) WEB-DLRip (ЛанселаП) скачать через торрент бесплатно
  • Звёздные войны: Повстанцы / Star Wars: Rebels (2014) WEB-DLRip [1080p] (Сезон 1, серий 8 из 16) (LostFilm) скачать через торрент бесплатно
  • Звёздные войны: Повстанцы / Star Wars: Rebels (2014) WEB-DLRip (Сезон 1, серий 7 из 16) (Невафильм) (обновляемая)
  • Звёздные войны: Повстанцы 1.0.0 - Официальная игра по мотивам популярного серила [Ru] скачать через торрент бесплатно
  • Звёздные войны: Повстанцы 1.0.2 [Ru / En] скачать через торрент бесплатно
  • Звёздные войны: Сага / Star Wars: The Complete Saga (1977-2005) HDRip [H.264][MP4|960х400] скачать через торрент бесплатно


    • Комментарии (0):

      Информация

      Информация

        Посетители, находящиеся в группе Гости, не могут оставлять комментарии в данной новости.

        ↓ Меню




        ↓ Опрос

        Вы добавили сайт в закладки?
        Да
        Нет


        Top 10 за месяц (КПК и мобильные)