.
Авторизация | Регистрация
Хочешь лучшие торренты? Добавь свой email!
Добавить

Торрент скачать бесплатно

  • support: webmaster@btracker.club
» » Хищник / The Predator (2018) WEB-DLRip [H.264] [MP4|1276x532] торрент скачать бесплатно


    Хищник / The Predator (2018) WEB-DLRip [H.264] [MP4|1276x532] торрент скачать бесплатно

    Опубликовал: fregat | Дата: 27-11-2018, 05:00 | .torrent скачали: 4

    Хищник / The Predator (2018) WEB-DLRip [H.264] [MP4|1276x532]Производство: США, Канада/Twentieth Century Fox, Davis Entertainment, TSG Entertainment
    Жанр: Фантастика, Боевик, Приключения
    Режиссер: Шейн Блэк
    Актеры: Бойд Холбрук, Треванте Роудс, Джейкоб Тремблей, Кигэн-Майкл Ки, Оливия Манн, Стерлинг К. Браун, Томас Джейн, Алфи Аллен, Августо Агилера, Джейк Бьюзи

    Описание

    Главный герой, бывший морпех, обнаруживает злобную инопланетную расу на Земле, но никто не верит ему, что эти твари существуют. Его сын-аутист, которого все обижают в школе, становится ключевой фигурой в схватке с Хищниками, поскольку мальчик умеет невероятно быстро учить языки и, судя по всему, сможет понять пришельцев.

    Возраст: 18+ (зрителям, достигшим 18 лет. запрещено для детей)
    Рейтинг MPAA: NC-17 (лицам до 17 лет просмотр запрещен)
    Дата мировой премьеры: 07.09.2018
    Дата российской премьеры: 13.09.2018
    Продолжительность: 01: 46: 48
    Качество видео: WEB-DLRip
    Реклама: отсутствует
    Перевод: Дублированный
    Субтитры: Корейские (хардсаб)
    Видео: AVC/H.264, 1276x532, ~1024 Kbps
    Аудио: AAC, 2 ch, 128 Kbps - русский

    Общее
    Полное имя : The_Predator_(2018)_720p.mp4
    Формат : MPEG-4
    Профиль формата : Base Media
    Идентификатор кодека : isom (isom/iso2/avc1/mp41)
    Размер файла : 878 Мбайт
    Продолжительность : 1 ч. 46 м.
    Общий поток : 1150 Кбит/сек
    Программа кодирования : Lavf56.25.101
    Видео
    Идентификатор : 1
    Формат : AVC
    Формат/Информация : Advanced Video Codec
    Профиль формата : High@L3.1
    Параметр CABAC формата : Да
    Параметр ReFrames формата : 4 кадра
    Идентификатор кодека : avc1
    Идентификатор кодека/Информация : Advanced Video Coding
    Продолжительность : 1 ч. 46 м.
    Битрейт : 1024 Кбит/сек
    Ширина : 1280 пикселей
    Высота : 532 пикселя
    Соотношение сторон : 2, 40: 1
    Соотношение сторон в оригинале : 2, 40: 1
    Режим частоты кадров : Постоянный
    Частота кадров : 30, 000 кадров/сек
    Цветовое пространство : YUV
    Субдискретизация насыщенности : 4: 2: 0
    Битовая глубина : 8 бит
    Тип развёртки : Прогрессивная
    Бит/(Пиксели*Кадры) : 0.050
    Размер потока : 774 Мбайт (88%)
    Библиотека кодирования : x264 core 146
    Настройки программы : cabac=1/ref=2/deblock=1: 0: 0/analyse=0x3: 0x113/me=hex/subme=6/psy=1/psy_rd=1.00: 0.00/mixed_ref=1/me_range=16/chroma_me=1/trellis=1/8x8dct=1/cqm=0/deadzone=21, 11/fast_pskip=1/chroma_qp_offset=-2/threads=48/lookahead_threads=4/sliced_threads=0/nr=0/decimate=1/interlaced=0/bluray_compat=0/constrained_intra=0/bframes=3/b_pyramid=2/b_adapt=1/b_bias=0/direct=1/weightb=1/open_gop=0/weightp=1/keyint=50/keyint_min=5/scenecut=40/intra_refresh=0/rc_lookahead=30/rc=2pass/mbtree=1/bitrate=1024/ratetol=97.5/qcomp=0.60/qpmin=0/qpmax=69/qpstep=4/cplxblur=20.0/qblur=0.5/ip_ratio=1.40/aq=1: 1.00
    Аудио
    Идентификатор : 2
    Формат : AAC
    Формат/Информация : Advanced Audio Codec
    Профиль формата : LC
    Идентификатор кодека : 40
    Продолжительность : 1 ч. 46 м.
    Duration_LastFrame : -5 мс.
    Вид битрейта : Постоянный
    Битрейт : 128 Кбит/сек
    Каналы : 2 канала
    Расположение каналов : Front: L R
    Частота : 44, 1 КГц
    Частота кадров : 43, 066 кадра/сек (1024 spf)
    Метод сжатия : С потерями
    Размер потока : 97, 8 Мбайт (11%)
    Default : Да
    Alternate group : 1
    Скриншоты:


    Все одноименные релизы в Клубе
    Время раздачи: c 23: 00 до 08: 00 по возможности (до появления первых 3-5 скачавших)


    Хищник/The Predator (2018) WEB-DLRip [H.264] [MP4|1276x532]
    Рейтинг →
     (голосов: 1, оценка 3/5, голосовать можно 1 раз )

    Другие торренты по теме:

  • Хищник / Predator (1987) BDRip [720p] [hand made 60fps] скачать через торрент бесплатно
  • Хищник / Predator (1987) BDRip [H.264 / 1080p] скачать через торрент бесплатно
  • Хищник / Predator (1987) BDRemux [2D / 3D] [H.264 / 1080p] скачать через торрент бесплатно
  • Хищник / Predator (1987) BDRip [H.265 / 1080p-LQ]
  • Хищник / Predator (1987) BDRip [H.265 / 1080p]
  • Хищник / Predator (1987) BDRip [H.264 / 1080p-LQ] [Ultimate Hunter Edition]
  • Хищник / Predator (1987) [Ultimate Hunter Edition] BDRip [H.265 / 1080p-LQ] [10-bit]
  • Хищник / Predator (1987) BDRip [H.264 / 1080p-LQ]


    • Комментарии (0):

      Информация

      Информация

        Посетители, находящиеся в группе Гости, не могут оставлять комментарии в данной новости.

        ↓ Меню




        ↓ Опрос

        Вы добавили сайт в закладки?
        Да
        Нет


        Top 10 за месяц (КПК и мобильные)

        Garmin: Дороги России Топо 6.29 [Ru]

        (скачиваний: 82)
        Прошивка Android KitKat 4.4.2 (Официальное обновление 01010 Europe (Android 4.4.2) для Alcatel One Touch Idol X+ (04.09.2014) <Ru>) скачать через торрент бесплатно

        (скачиваний: 37)
        Махакали. Конец - это Начало / Mahakali / Mahakaali - Anth Hi Aarambh Hai (2017) WEB-DLRip [H.264] [MP4|1280x720] (серии 1-95 из 95) [HIN / RU Sub]

        (скачиваний: 34)
        Сборка iGO Primo NextGen 9.19.1.484935 WinCE [Ru / Multi] - навигационный программный комплекс для устройств с WinCE скачать через торрент бесплатно

        (скачиваний: 34)
        Идущие к черту (2017–2019) WEBRip [H.264] (серии 1-3 из 3) [MP4|1280x720]

        (скачиваний: 33)
        Кукутики: Полная коллекция / (Kukutiki: Full collection) (2015-2018) WEB-DLRip [H.264] (Серии 1-79 из 79 + Караоке версии 1-16 из 16) [MP4|1280x720]

        (скачиваний: 27)
        SP Flash Tool 5.1516.00 [Ru] скачать через торрент бесплатно

        (скачиваний: 27)
        Wink v1.4.2.8 Full / 1.4.0.1 Full Android TV [Ru]

        (скачиваний: 21)
        Карты для iGo 2018.Q3 HERE (NQ, NavTeq) Европа [Ru / Multi]

        (скачиваний: 20)
        NaviTel / Навител Навигатор v9.7.2493 WinCE [Ru]

        (скачиваний: 20)