.
Авторизация | Регистрация
Хочешь лучшие торренты? Добавь свой email!
Добавить

Торрент скачать бесплатно

  • support: webmaster@btracker.club
» » Последнее королевство / The Last Kingdom (2018) WEB-DLRip [H.264] (сезон 3, серии 1 из 10) LostFilm [MP4|1280x720] (обновляемая) торрент скачать бесплатно


    Последнее королевство / The Last Kingdom (2018) WEB-DLRip [H.264] (сезон 3, серии 1 из 10) LostFilm [MP4|1280x720] (обновляемая) торрент скачать бесплатно

    Опубликовал: fregat | Дата: 26-11-2018, 05:01 | .torrent скачали: 3

    Последнее королевство / The Last Kingdom (2018) WEB-DLRip [H.264] (сезон 3, серии 1 из 10) LostFilm [MP4|1280x720] (обновляемая)Производство: Великобритания/BBC Two, Netflix
    Жанр: Драма, Боевик, История
    Режиссер: Питер Хор, Джон Ист, Энтони Бирн, Джеми Донахью и др
    Актеры: Александр Дреймон, Элиза Баттерворз, Дэвид Доусон, Эмили Кокс и др

    Описание

    В IX веке Англию раздирали непрекращающиеся войны между англосаксами и викингами. Утред из замка Беббанбург, выходец из знатной саксонской семьи. Во время очередного набега воинственных скандинавов отец Утреда погибает, и мальчик отважно бросается на защиту его чести. Ребенка не смущает ни отсутствие у него настоящих доспехов, ни превосходящий его по силе противник, ведь предназначение воина; быть на поле боя и стоять за родные земли до последнего. Смелый ребенок настолько приглянулся данам, что они оставили его в живых и воспитали как истинного викинга. Среди язычников Утред учится всем премудростям жизни и встречает свою первую любовь, но все течет, все меняется; Повзрослев, Утред предстает перед сложным выбором; перейти на сторону англичан и помочь им разгромить врагов-скандинавов или же остаться верным викингам, вырастившим его. К какому стану примкнет главный герой, и не пожалеет ли он впоследствии о своем решении? Ведь при любом исходе в соперники он получит опасного врага. Утреду придется преодолеть немало преград, прежде чем он найдет свое место в жизни, но встретит ли молодой воин свою славу или погибнет, знает только провидение.

    Дата мировой премьеры: 19 ноября 2018 (3 сезон)
    Релиз от: LostFilm
    Продолжительность: ~00: 55: 00 серия
    Качество видео: WEB-DLRip
    Перевод: Многоголосый закадровый, профессиональный - LostFilm
    Видео: AVC/H.264, 1280x720, ~4000 Kbps
    Аудио: AAC, 2 ch, 265 Kbps - русский (многоголосый закадровый)

    Общее
    Полное имя : The_Last_Kingdom_s3_720p/The_Last_Kingdom_s3e1.720p.mp4
    Формат : MPEG-4
    Профиль формата : Base Media
    Идентификатор кодека : isom (isom)
    Размер файла : 1, 65 Гбайт
    Продолжительность : 55 м. 7 с.
    Режим общего битрейта : Переменный
    Общий поток : 4275 Кбит/сек
    Коллекция : Последнее королевство
    Сезон : 3
    Альбом : Последнее королевство, Сезон 3
    Альбом/Исполнитель : Последнее королевство
    Часть : 1
    Часть/Положение : 3
    Трек : Эпизод 1
    Трек/Положение : 1
    Исполнитель : Последнее королевство
    Жанр : Drama
    Тип содержимого : TV Show
    Дата записи : 2018
    Дата кодирования : UTC 2018-11-22 19: 54: 51
    Дата пометки : UTC 2018-11-22 19: 54: 51
    Программа кодирования : LostCoder
    Авторское право : LostFilm.TV (c)
    Обложка : Yes
    Примечание : В IX веке Англию раздирали непрекращающиеся войны между англосаксами и викингами. Во время очередного набега отец Утреда погибает. Смелый ребенок настолько приглянулся данам, что они оставили его в живых и воспитали как истинного викинга.
    Part_ID : 301
    Видео
    Идентификатор : 1
    Формат : AVC
    Формат/Информация : Advanced Video Codec
    Профиль формата : High@L4.1
    Параметр CABAC формата : Да
    Параметр ReFrames формата : 4 кадра
    Идентификатор кодека : avc1
    Идентификатор кодека/Информация : Advanced Video Coding
    Продолжительность : 55 м. 7 с.
    Битрейт : 4000 Кбит/сек
    Максимальный битрейт : 14, 7 Мбит/сек
    Ширина : 1280 пикселей
    Высота : 720 пикселей
    Соотношение сторон : 16: 9
    Режим частоты кадров : Постоянный
    Частота кадров : 25, 000 кадров/сек
    Цветовое пространство : YUV
    Субдискретизация насыщенности : 4: 2: 0
    Битовая глубина : 8 бит
    Тип развёртки : Прогрессивная
    Бит/(Пиксели*Кадры) : 0.174
    Размер потока : 1, 54 Гбайт (94%)
    Заголовок : Imported with GPAC 0.4.6-DEV (internal rev. 5)
    Библиотека кодирования : x264 core 112 r1834 a51816a
    Настройки программы : cabac=1/ref=4/deblock=1: -3: -2/analyse=0x3: 0x113/me=hex/subme=7/psy=1/psy_rd=1.00: 0.00/mixed_ref=1/me_range=16/chroma_me=1/trellis=1/8x8dct=1/cqm=0/deadzone=21, 11/fast_pskip=1/chroma_qp_offset=-2/threads=12/sliced_threads=0/nr=0/decimate=1/interlaced=0/constrained_intra=0/bframes=5/b_pyramid=2/b_adapt=1/b_bias=0/direct=1/weightb=1/open_gop=0/weightp=2/keyint=250/keyint_min=25/scenecut=40/intra_refresh=0/rc_lookahead=40/rc=2pass/mbtree=1/bitrate=4000/ratetol=1.0/qcomp=0.60/qpmin=0/qpmax=51/qpstep=4/cplxblur=20.0/qblur=0.5/vbv_maxrate=10000/vbv_bufsize=256000/ip_ratio=1.40/aq=1: 1.00/nal_hrd=none
    Дата кодирования : UTC 2018-11-21 08: 41: 55
    Дата пометки : UTC 2018-11-22 19: 55: 21
    Аудио
    Идентификатор : 2
    Формат : AAC
    Формат/Информация : Advanced Audio Codec
    Профиль формата : LC
    Идентификатор кодека : 40
    Продолжительность : 55 м. 7 с.
    Вид битрейта : Переменный
    Битрейт : 265 Кбит/сек
    Максимальный битрейт : 339 Кбит/сек
    Каналы : 2 канала
    Расположение каналов : Front: L R
    Частота : 48, 0 КГц
    Частота кадров : 46, 875 кадров/сек (1024 spf)
    Метод сжатия : С потерями
    Размер потока : 106 Мбайт (6%)
    Дата кодирования : UTC 2018-11-22 19: 55: 20
    Дата пометки : UTC 2018-11-22 19: 55: 21
    Внимание! Раздача ведётся путём добавления новых серий; при каждом добавлении создаётся новый торрент.
    Чтобы начать докачку новой серии, пользователям необходимо сделать следующее:
    1. Остановить скачивание;
    2. Удалить старый торрент у себя из клиента (старые серии удалять не надо);
    3. Скачать новый торрент и запустить его у себя в клиенте вместо старого, при этом указать клиенту путь в старую папку куда и должно происходить скачивание новых серий. Ваш клиент при этом должен произвести хеширование (проверку) старой папки и будет докачивать только те серии, которых у вас ещё нет. Старые серии при этом не удаляются, а продолжают раздаваться! Eсли вы уже удалили старые серии, то предотвратить повторную закачку старых серий можно, отжав галочку в соответствующих местах при запуске нового торрента.
    Скриншоты:


    Все одноименные релизы в Клубе
    Время раздачи: c 23: 00 до 08: 00 по возможности (до появления первых 3-5 скачавших)


    Последнее королевство/The Last Kingdom (2018) WEB-DLRip [H.264] (сезон 3, серии 1 из 10) LostFilm [MP4|1280x720] (обновляемая)
    Рейтинг →
     (голосов: 1, оценка 5/5, голосовать можно 1 раз )

    Другие торренты по теме:

  • Последнее королевство / The Last Kingdom (2015) WEB-DLRip (сезон 1, серии 1 из 8) NewStudio (обновляемая) скачать через торрент бесплатно
  • Последнее королевство / The Last Kingdom (2015) WEB-DLRip (сезон 1, серии 1 из 8) AlexFilm (обновляемая) скачать через торрент бесплатно
  • Последнее королевство / The Last Kingdom (2015) WEB-DL [H.264 / 720p-LQ] (сезон 1, серии 1-4 из 8) NewStudio (обновляемая) скачать через торрент бесплатно
  • Последнее королевство / The Last Kingdom (2015) WEB-DLRip [H.264 / 1080p-LQ] (сезон 1, серии 1 из 8) LostFilm (обновляемая)
  • Последнее королевство / The Last Kingdom (2015) WEB-DL [H.264 / 1080p-LQ] (сезон 1, серии 1-8 из 8) NewStudio
  • Последнее королевство / The Last Kingdom (2017) HDTV [H.264 / 1080p -LQ] (сезон 2, серии 1 из 8) LostFilm (обновляемая)
  • Последнее королевство / The Last Kingdom (2017) HDTVRip (сезон 2, серии 1 из 8) LostFilm (обновляемая)
  • Последнее королевство / The Last Kingdom (2018) WEBRip (сезон 3, серии 1 из 10) LostFilm (обновляемая)


    • Комментарии (0):

      Информация

      Информация

        Посетители, находящиеся в группе Гости, не могут оставлять комментарии в данной новости.

        ↓ Меню




        ↓ Опрос

        Вы добавили сайт в закладки?
        Да
        Нет


        Top 10 за месяц (КПК и мобильные)