.
Авторизация | Регистрация
Хочешь лучшие торренты? Добавь свой email!
Добавить

Торрент скачать бесплатно

  • support: webmaster@btracker.club
» » Король вне закона / Outlaw King (2018) WEB-DLRip [H.264] [MP4|1280x534] торрент скачать бесплатно


    Король вне закона / Outlaw King (2018) WEB-DLRip [H.264] [MP4|1280x534] торрент скачать бесплатно

    Опубликовал: fregat | Дата: 26-11-2018, 05:01 | .torrent скачали: 1

    Король вне закона / Outlaw King (2018) WEB-DLRip [H.264] [MP4|1280x534]Производство: Великобритания, США
    Жанр: Боевик, Драма, Исторический
    Режиссер: Дэвид Маккензи
    Актеры: Крис Пайн, Стивен Диллэйн, Rebecca Robin, Билли Хоул, Пол Блэр, Сэм Спруэлл, Джонатан Филлипс, Ben Clifford, Джэми МакЛахлан, Данкан Лакруа

    Описание

    История Роберта Брюса, одного из величайших шотландских монархов, организатора обороны страны в начальный период войны за независимость против Англии.

    Рейтинг MPAA: R (лицам до 17 лет обязательно присутствие взрослого)
    Дата мировой премьеры: 6 сентября 2018
    Продолжительность: 02: 01: 39
    Качество видео: WEB-DLRip
    Перевод: Дублированный (Невафильм)
    Видео: AVC/H.264, 1280x534, ~1024 Kbps
    Аудио: AAC, 2 ch, 128 Kbps

    Общее
    Полное имя : Король вне закона/Outlaw King (2018)_720p.mp4
    Формат : MPEG-4
    Профиль формата : Base Media
    Идентификатор кодека : isom (isom/iso2/avc1/mp41)
    Размер файла : 1009 Мбайт
    Продолжительность : 2 ч. 1 м.
    Режим общего битрейта : Переменный
    Общий поток : 1160 Кбит/сек
    Программа кодирования : Lavf56.25.101
    Видео
    Идентификатор : 1
    Формат : AVC
    Формат/Информация : Advanced Video Codec
    Профиль формата : High@L3.1
    Параметр CABAC формата : Да
    Параметр ReFrames формата : 4 кадра
    Идентификатор кодека : avc1
    Идентификатор кодека/Информация : Advanced Video Coding
    Продолжительность : 2 ч. 1 м.
    Битрейт : 1024 Кбит/сек
    Ширина : 1280 пикселей
    Высота : 534 пикселя
    Соотношение сторон : 2, 40: 1
    Соотношение сторон в оригинале : 2, 40: 1
    Режим частоты кадров : Постоянный
    Частота кадров : 24, 000 кадра/сек
    Цветовое пространство : YUV
    Субдискретизация насыщенности : 4: 2: 0
    Битовая глубина : 8 бит
    Тип развёртки : Прогрессивная
    Бит/(Пиксели*Кадры) : 0.062
    Размер потока : 894 Мбайт (89%)
    Библиотека кодирования : x264 core 146
    Настройки программы : cabac=1/ref=2/deblock=1: 0: 0/analyse=0x3: 0x113/me=hex/subme=6/psy=1/psy_rd=1.00: 0.00/mixed_ref=1/me_range=16/chroma_me=1/trellis=1/8x8dct=1/cqm=0/deadzone=21, 11/fast_pskip=1/chroma_qp_offset=-2/threads=48/lookahead_threads=4/sliced_threads=0/nr=0/decimate=1/interlaced=0/bluray_compat=0/constrained_intra=0/bframes=3/b_pyramid=2/b_adapt=1/b_bias=0/direct=1/weightb=1/open_gop=0/weightp=1/keyint=50/keyint_min=5/scenecut=40/intra_refresh=0/rc_lookahead=30/rc=2pass/mbtree=1/bitrate=1024/ratetol=97.5/qcomp=0.60/qpmin=0/qpmax=69/qpstep=4/cplxblur=20.0/qblur=0.5/ip_ratio=1.40/aq=1: 1.00
    Аудио
    Идентификатор : 2
    Формат : AAC
    Формат/Информация : Advanced Audio Codec
    Профиль формата : LC
    Идентификатор кодека : 40
    Продолжительность : 2 ч. 1 м.
    Продолжительность оригинала : 2 ч. 1 м.
    Source_Duration_LastFrame : -8 мс.
    Вид битрейта : Переменный
    Битрейт : 128 Кбит/сек
    Каналы : 2 канала
    Расположение каналов : Front: L R
    Частота : 44, 1 КГц
    Частота кадров : 43, 066 кадра/сек (1024 spf)
    Метод сжатия : С потерями
    Размер потока : 111 Мбайт (11%)
    Размер потока оригинала : 111 Мбайт (11%)
    Default : Да
    Alternate group : 1
    Скриншоты:


    Все одноименные релизы в Клубе
    Время раздачи: с 23: 00 до 08: 00 по возможности (до появления первых 3-5 скачавших)


    Король вне закона/Outlaw King (2018) WEB-DLRip [H.264] [MP4|1280x534]
    Рейтинг →
     (голосов: 1, оценка 4/5, голосовать можно 1 раз )

    Другие торренты по теме:

  • Король вне закона / Outlaw King (2018) WEBRip [H.264 / 1080p]
  • Король вне закона / Outlaw King (2018) WEB-DL [H.264 / 720p-LQ]
  • Король вне закона / Outlaw King (2018) WEBRip [H.264 / 1080p-LQ]
  • Король вне закона / Outlaw King (2018) WEBRip
  • Король вне закона / Outlaw King (2018) WEBRip [1080p] ATV
  • Король вне закона / Outlaw King (2018) WEB-DLRip [H.264]
  • Король вне закона / Outlaw King (2018) WEBRip [H.264 / 720p]


    • Комментарии (0):

      Информация

      Информация

        Посетители, находящиеся в группе Гости, не могут оставлять комментарии в данной новости.

        ↓ Меню




        ↓ Опрос

        Вы добавили сайт в закладки?
        Да
        Нет


        Top 10 за месяц (КПК и мобильные)