.
Авторизация | Регистрация
Хочешь лучшие торренты? Добавь свой email!
Добавить

Торрент скачать бесплатно

  • support: webmaster@btracker.club
» » Четыре ключа к твоим победам (2018) HDTV [H.264] [MP4|1920x1080] торрент скачать бесплатно


    Четыре ключа к твоим победам (2018) HDTV [H.264] [MP4|1920x1080] торрент скачать бесплатно

    Опубликовал: fregat | Дата: 25-11-2018, 05:01 | .torrent скачали: 3

    Четыре ключа к твоим победам (2018) HDTV [H.264] [MP4|1920x1080]Производство: Россия
    Жанр: документальный, семейный, просветительский, познавательный
    Режиссер: Алексей Дегтярёв
    Участники: Михаил Федоренко, Сергей Рязанский, Михаил Дашкиев, Андрей Ткачев, Радислав Гандапас

    Описание

    ФильмОбщероссийской общественной организации Общее делопосвящён теме личностного роста. Жизнь каждого человека состоит из четырёх сфер: физической – это наше здоровье; социальной – отношения с окружающими; интеллектуальной – образование, навыки; духовной – наш внутренний мир, жизненные ценности. Это как четыре колеса у автомобиля. Если хоть одно колесо неисправно, машина не сможет нормально ехать. Развитие в четырёх сферах жизни – это ключ к победам и реализация заложенного в каждом из нас потенциала.
    Дата российской премьеры: 13.11.2018
    Продолжительность: 00: 29: 09
    Качество видео: HDTV
    Перевод: Отсутствует
    Субтитры: Отсутствуют
    Видео: AVC/H.264, 1920x1080, ~15, 7 Mbps
    Аудио: AAC, 2 ch, 317 Kbps

    Общее
    Полное имя : E: NNM-CLUBNNM-Club_Четыре ключа к твоим победам.mp4
    Формат : MPEG-4
    Профиль формата : Base Media/Version 2
    Идентификатор кодека : mp42 (mp42/mp41)
    Размер файла : 3, 27 Гбайт
    Продолжительность : 29 м. 9 с.
    Режим общего битрейта : Переменный
    Общий поток : 16, 1 Мбит/сек
    Дата кодирования : UTC 2018-11-07 10: 26: 03
    Дата пометки : UTC 2018-11-07 10: 42: 47
    TIM : 00: 00: 00: 00
    TSC : 25
    TSZ : 1
    Видео
    Идентификатор : 1
    Формат : AVC
    Формат/Информация : Advanced Video Codec
    Профиль формата : Main@L4.1
    Настройки формата : CABAC/4 Ref Frames
    Параметр CABAC формата : Да
    Параметр RefFrames формата : 4 кадра
    Идентификатор кодека : avc1
    Идентификатор кодека/Информация : Advanced Video Coding
    Продолжительность : 29 м. 9 с.
    Битрейт : 15, 7 Мбит/сек
    Ширина : 1920 пикселей
    Высота : 1080 пикселей
    Соотношение сторон : 16: 9
    Режим частоты кадров : Постоянный
    Частота кадров : 25, 000 кадров/сек
    Цветовое пространство : YUV
    Субдискретизация насыщенности : 4: 2: 0
    Битовая глубина : 8 бит
    Тип развёртки : Прогрессивная
    Бит/(Пиксели*Кадры) : 0.303
    Размер потока : 3, 20 Гбайт (98%)
    Язык : English
    Дата кодирования : UTC 2018-11-07 10: 26: 03
    Дата пометки : UTC 2018-11-07 10: 26: 03
    Цветовой диапазон : Limited
    Основные цвета : BT.709
    Характеристики трансфера : BT.709
    Коэффициенты матрицы : BT.709
    Codec configuration box : avcC
    Аудио
    Идентификатор : 2
    Формат : AAC LC
    Формат/Информация : Advanced Audio Codec Low Complexity
    Идентификатор кодека : mp4a-40-2
    Продолжительность : 29 м. 9 с.
    Продолжительность оригинала : 29 м. 9 с.
    Вид битрейта : Переменный
    Битрейт : 317 Кбит/сек
    Максимальный битрейт : 365 Кбит/сек
    Каналы : 2 канала
    Channel layout : L R
    Частота : 48, 0 КГц
    Частота кадров : 46, 875 кадров/сек (1024 SPF)
    Метод сжатия : С потерями
    Размер потока : 66, 2 Мбайт (2%)
    Размер потока оригинала : 66, 2 Мбайт (2%)
    Язык : English
    Дата кодирования : UTC 2018-11-07 10: 26: 03
    Дата пометки : UTC 2018-11-07 10: 26: 03


    Четыре ключа к твоим победам (2018) HDTV [H.264] [MP4|1920x1080]
    Рейтинг →
     (голосов: 1, оценка 5/5, голосовать можно 1 раз )

    Другие торренты по теме:

  • Странное варево / Четыре комнаты / Strange brew / Four Rooms (1995) VHSRip скачать через торрент бесплатно
  • Четыре встречи с Владимиром Высоцким (1987) DVDRip
  • Битлз: Четыре плюс один (Пятый в квартете) / Backbeat (1994) DVDRemux
  • Четыре минуты / Vier Minuten (2006) BDRip [720p] скачать через торрент бесплатно
  • Гражданин четыре / Citizenfour (2014) WEB-DLRip [H.264][EN]
  • Вера Брежнева - Четыре времени желаний (2015) [MP3|320 кб / с]<Pop> скачать через торрент бесплатно
  • Стив Бланк | Четыре шага к озарению. Стратегии создания успешных стартапов (2014) [PDF, DOC, EPUB] скачать через торрент бесплатно
  • Четыре комнаты / Four Rooms (1995) BDRip [H.264] скачать через торрент бесплатно


    • Комментарии (0):

      Информация

      Информация

        Посетители, находящиеся в группе Гости, не могут оставлять комментарии в данной новости.

        ↓ Меню




        ↓ Опрос

        Вы добавили сайт в закладки?
        Да
        Нет


        Top 10 за месяц (КПК и мобильные)