.
Авторизация | Регистрация

Торрент скачать бесплатно

  • support: webmaster@btracker.club
» » Рождественские хроники / The Christmas Chronicles (2018) WEB-DLRip [H.264] [MP4|1280x720] торрент скачать бесплатно


    Рождественские хроники / The Christmas Chronicles (2018) WEB-DLRip [H.264] [MP4|1280x720] торрент скачать бесплатно

    Дата: 25-11-2018, 05:01 | .torrent скачали: 1

    Рождественские хроники / The Christmas Chronicles (2018) WEB-DLRip [H.264] [MP4|1280x720]Производство: США/Pinewood Studio, 1492 Pictures, Madhouse Entertainment
    Жанр: Фэнтези, Семейный, Приключения
    Режиссер: Клэй Кэйтис
    Актеры: Курт Рассел, Кимберли Уильямс-Пэйсли, Оливер Хадсон, Джуда Льюис, Ламорн Моррис, Дэрби Кэмп, Лорен Коллинз, Джереми Рэймонд, Мартин Роуч, Kayla Lakhani, Джефф Теравайнен, Ишан Моррис

    Описание

    В канун Рождества брат с сестрой - Кейт и Тедди Пирс - собираются заснять на видео появление Санты. Дерзкий замысел выливается в необыкновенное приключение, о котором дети не могли даже мечтать. Вместе с преданными эльфами и волшебными летающими оленями они помогают Санте спасти всеми любимый праздник.

    Дата мировой премьеры: 22 ноября 2018
    Продолжительность: 01: 44: 27
    Качество видео: WEB-DLRip
    Перевод: Дублированный (Пифагор)
    Видео: AVC/H.264, 1280x720, ~5988 Kbps
    Аудио: AAC, 2 ch, 103 Kbps

    Общее
    Полное имя : The Christmas Chronicles (2018)_720p.mp4
    Формат : MPEG-4
    Профиль формата : Base Media
    Идентификатор кодека : isom (isom/iso2/avc1/mp41)
    Размер файла : 4, 45 Гбайт
    Продолжительность : 1 ч. 44 м.
    Режим общего битрейта : Переменный
    Общий поток : 6097 Кбит/сек
    Программа кодирования : Lavf57.41.100
    Видео
    Идентификатор : 1
    Формат : AVC
    Формат/Информация : Advanced Video Codec
    Профиль формата : High@L3.1
    Параметр CABAC формата : Да
    Параметр ReFrames формата : 2 кадра
    Параметр GOP формата : M=1, N=12
    Идентификатор кодека : avc1
    Идентификатор кодека/Информация : Advanced Video Coding
    Продолжительность : 1 ч. 44 м.
    Битрейт : 5988 Кбит/сек
    Ширина : 1280 пикселей
    Высота : 720 пикселей
    Соотношение сторон : 16: 9
    Режим частоты кадров : Постоянный
    Частота кадров : 23, 976 (23976/1000) кадра/сек
    Цветовое пространство : YUV
    Субдискретизация насыщенности : 4: 2: 0
    Битовая глубина : 8 бит
    Тип развёртки : Прогрессивная
    Бит/(Пиксели*Кадры) : 0.271
    Размер потока : 4, 37 Гбайт (98%)
    Цветовой диапазон : Limited
    Аудио
    Идентификатор : 2
    Формат : AAC
    Формат/Информация : Advanced Audio Codec
    Профиль формата : LC
    Идентификатор кодека : 40
    Продолжительность : 1 ч. 44 м.
    Duration_LastFrame : -9 мс.
    Вид битрейта : Переменный
    Битрейт : 103 Кбит/сек
    Максимальный битрейт : 192 Кбит/сек
    Каналы : 2 канала
    Расположение каналов : Front: L R
    Частота : 48, 0 КГц
    Частота кадров : 46, 875 кадров/сек (1024 spf)
    Метод сжатия : С потерями
    Размер потока : 76, 7 Мбайт (2%)
    Default : Да
    Alternate group : 1
    Скриншоты:


    Все одноименные релизы в Клубе
    Время раздачи: c 23: 00 до 08: 00 по возможности (до появления первых 3-5 скачавших)


    Рождественские хроники/The Christmas Chronicles (2018) WEB-DLRip [H.264] [MP4|1280x720]
    Рейтинг →
     (голосов: 1, оценка 4/5, голосовать можно 1 раз )

    Другие торренты по теме:



      Комментарии (0):

      Информация

      Информация

        Посетители, находящиеся в группе Гости, не могут оставлять комментарии в данной новости.

        ↓ Меню




        ↓ Опрос

        Вы добавили сайт в закладки?
        Да
        Нет


        Top 10 за месяц (КПК и мобильные)