.
Авторизация | Регистрация

Торрент скачать бесплатно

  • support: webmaster@btracker.club
» » Великий уравнитель 2 / The Equalizer 2 (2018) WEB-DLRip [H.264] [MP4|1280x530] торрент скачать бесплатно


    Великий уравнитель 2 / The Equalizer 2 (2018) WEB-DLRip [H.264] [MP4|1280x530] торрент скачать бесплатно

    Дата: 21-11-2018, 05:00 | .torrent скачали: 7

    Великий уравнитель 2 / The Equalizer 2 (2018) WEB-DLRip [H.264] [MP4|1280x530]Производство: США/Columbia Pictures Corporation
    Жанр: Боевик, Криминал, Триллер
    Режиссер: Антуан Фукуа
    Актеры: Педро Паскаль, Дензел Вашингтон, Билл Пуллман, Мелисса Лео, Джонатан Скарф, Сакина Джаффри, Кэролайн Дэй, Орсон Бин, Хайди Гарроу, Эштон Сандерс

    Описание

    Продолжение истории Роберта Маккола, бывшего агента ЦРУ, который самостоятельно вершит правосудие.

    Возраст: 18+ (зрителям, достигшим 18 лет. запрещено для детей)
    Рейтинг MPAA: R (лицам до 17 лет обязательно присутствие взрослого)
    Дата мировой премьеры: 19 июля 2018
    Дата российской премьеры: 06 сентября 2018, WDSSPR
    Дата выхода DVD/Blu-ray релиза: 31 октября 2018, Sony Pictures Home Entertainment
    Продолжительность: 02: 01: 12
    Качество видео: WEB-DLRip
    Перевод: Дублированный(iTunes)
    Видео: AVC/H.264, 1280x530, ~1024 Kbps
    Аудио: AAC, 2 ch, 128 Kbps

    Общее
    Полное имя : The Equalizer 2 (2018)_720p.mp4
    Формат : MPEG-4
    Профиль формата : Base Media
    Идентификатор кодека : isom (isom/iso2/avc1/mp41)
    Размер файла : 1, 01 Гбайт
    Продолжительность : 2 ч. 1 м.
    Общий поток : 1191 Кбит/сек
    Программа кодирования : Lavf56.25.101
    Обложка : Yes
    Видео
    Идентификатор : 1
    Формат : AVC
    Формат/Информация : Advanced Video Codec
    Профиль формата : High@L3.1
    Параметр CABAC формата : Да
    Параметр ReFrames формата : 4 кадра
    Идентификатор кодека : avc1
    Идентификатор кодека/Информация : Advanced Video Coding
    Продолжительность : 2 ч. 1 м.
    Битрейт : 1024 Кбит/сек
    Ширина : 1280 пикселей
    Высота : 530 пикселей
    Соотношение сторон : 2, 40: 1
    Соотношение сторон в оригинале : 2, 40: 1
    Режим частоты кадров : Постоянный
    Частота кадров : 23, 976 (24000/1001) кадра/сек
    Цветовое пространство : YUV
    Субдискретизация насыщенности : 4: 2: 0
    Битовая глубина : 8 бит
    Тип развёртки : Прогрессивная
    Бит/(Пиксели*Кадры) : 0.063
    Размер потока : 917 Мбайт (89%)
    Библиотека кодирования : x264 core 146
    Настройки программы : cabac=1/ref=2/deblock=1: 0: 0/analyse=0x3: 0x113/me=hex/subme=6/psy=1/psy_rd=1.00: 0.00/mixed_ref=1/me_range=16/chroma_me=1/trellis=1/8x8dct=1/cqm=0/deadzone=21, 11/fast_pskip=1/chroma_qp_offset=-2/threads=48/lookahead_threads=4/sliced_threads=0/nr=0/decimate=1/interlaced=0/bluray_compat=0/constrained_intra=0/bframes=3/b_pyramid=2/b_adapt=1/b_bias=0/direct=1/weightb=1/open_gop=0/weightp=1/keyint=50/keyint_min=5/scenecut=40/intra_refresh=0/rc_lookahead=30/rc=2pass/mbtree=1/bitrate=1024/ratetol=97.5/qcomp=0.60/qpmin=0/qpmax=69/qpstep=4/cplxblur=20.0/qblur=0.5/ip_ratio=1.40/aq=1: 1.00
    Аудио
    Идентификатор : 2
    Формат : AAC
    Формат/Информация : Advanced Audio Codec
    Профиль формата : LC
    Идентификатор кодека : 40
    Продолжительность : 2 ч. 0 м.
    Duration_LastFrame : -2 мс.
    Вид битрейта : Постоянный
    Битрейт : 128 Кбит/сек
    Каналы : 2 канала
    Расположение каналов : Front: L R
    Частота : 44, 1 КГц
    Частота кадров : 43, 066 кадра/сек (1024 spf)
    Метод сжатия : С потерями
    Размер потока : 111 Мбайт (11%)
    Default : Да
    Alternate group : 1
    Скриншоты:


    Все одноименные релизы в Клубе
    Время раздачи: С 23: 00 До 08: 00 по возможности (до появления первых 3-5 скачавших)


    Великий уравнитель 2/The Equalizer 2 (2018) WEB-DLRip [H.264] [MP4|1280x530]
    Рейтинг →
     (голосов: 1, оценка 4/5, голосовать можно 1 раз )

    Другие торренты по теме:

  • Великий уравнитель / The Equalizer (2014) WEBRip [1080p] [Трейлер]
  • Великий уравнитель / The Equalizer (2014) WEBRip [H.264 / 720p-LQ] [Трейлер]
  • Великий уравнитель / The Equalizer (2014) CamRip скачать через торрент бесплатно
  • Великий уравнитель / The Equalizer (2014) CamRip скачать через торрент бесплатно
  • Великий уравнитель / The Equalizer (2014) HDRip [звук с TS] скачать через торрент бесплатно
  • Великий уравнитель / The Equalizer (2014) HDRip [Line]
  • Великий уравнитель / The Equalizer (2014) HDRip [Line]
  • Великий уравнитель / The Equalizer (2014) BDRip [H.264 / 720p-LQ] [VO]


    • Комментарии (0):

      Информация

      Информация

        Посетители, находящиеся в группе Гости, не могут оставлять комментарии в данной новости.

        ↓ Меню




        ↓ Опрос

        Вы добавили сайт в закладки?
        Да
        Нет


        Top 10 за месяц (КПК и мобильные)