.
Авторизация | Регистрация
Хочешь лучшие торренты? Добавь свой email!
Добавить

Торрент скачать бесплатно

  • support: webmaster@btracker.club
» » Ван Хельсинг / Van Helsing (2018) WEB-DLRip [H.264] (сезон 3, серии 1-6 из 13) LostFilm [MP4|1280x720] (обновляемая) торрент скачать бесплатно


    Ван Хельсинг / Van Helsing (2018) WEB-DLRip [H.264] (сезон 3, серии 1-6 из 13) LostFilm [MP4|1280x720] (обновляемая) торрент скачать бесплатно

    Опубликовал: fregat | Дата: 20-11-2018, 05:00 | .torrent скачали: 1

    Ван Хельсинг / Van Helsing (2018) WEB-DLRip [H.264] (сезон 3, серии 1-6 из 13) LostFilm [MP4|1280x720] (обновляемая)Производство: США
    Жанр: ужасы, фэнтези, боевик, драма
    Режиссер: Майкл Нанкин, Саймон Бэрри, Дэвид Фрэйзи
    Актеры: Келли Овертон, Джонатан Скарф, Кристофер Хейердал, Рукия Бернард, Дэвид Кабитт, Винсент Гэйл, Хилари Джардин, Оливер Махоро Смит, Алекс Паунович, Элисон Вандзура и др.

    Описание

    Главным героем сериала является Ванесса Хельсинг — дочка известного охотника на вурдалаков и непримиримого противника Дракулы — Абрахама Ван Хельсинга. Героиня оживает через несколько лет и оказывается в обществе, порабощённом вурдалаками. Ванесса выявляет в себе исключительную силу над вурдалаками и превращается в того человека, который сплотит народ, чтобы восстановить потерянный мир.

    Продолжительность: ~ 00: 43: 00 серия
    Качество видео: WEB-DLRip
    Перевод: Многоголосый закадровый, профессиональный -LostFilm
    Реклама: присутствует заставка и логотип LostFilm
    Видео: AVC/H.264, 1280x720 (16: 9), ~4000 Kbps
    Аудио: AAC, 2 ch, 255 Kbps - русский (многоголосый закадровый)
    Код: выделить все

    Полное имя : F:Van_Helsing_s3_WEB-DLRip720p_x264_LostFilm_[NNM-CLUB]Van.Helsing.S03E01.720p.rus.LostFilm.TV.mp4
    Формат : MPEG-4
    Профиль формата : Base Media
    Идентификатор кодека : isom (isom)
    Размер файла : 1, 28 Гбайт
    Продолжительность : 43 м.
    Режим общего битрейта : Переменный
    Общий поток : 4270 Кбит/сек
    Коллекция : Ван Хельсинг
    Сезон : 3
    Альбом : Ван Хельсинг, Сезон 3
    Альбом/Исполнитель : Ван Хельсинг
    Часть : 1
    Часть/Положение : 3
    Трек : Свежие побеги
    Трек/Положение : 1
    Исполнитель : Ван Хельсинг
    Жанр : Sci-Fi Fantasy
    Тип содержимого : TV Show
    Дата записи : 2018
    Дата кодирования : UTC 2018-10-07 17:13:21
    Дата пометки : UTC 2018-10-07 17:13:21
    Программа кодирования : Yamb 2.1.0.0 [http://yamb.unite-video.com]/LostCoder
    Авторское право : LostFilm.TV (c)
    Обложка : Yes
    Примечание : Взрыв Йеллоустоунской кальдеры стер с лица земли несколько американских штатов. Небо над Северной Америки заволокло вулканическим смогом
    Part_ID : 301
    Видео
    Идентификатор : 1
    Формат : AVC
    Формат/Информация : Advanced Video Codec
    Профиль формата :High@L4.1
    Параметр CABAC формата : Да
    Параметр ReFrames формата : 4 кадра
    Идентификатор кодека : avc1
    Идентификатор кодека/Информация : Advanced Video Coding
    Продолжительность : 42 м.
    Битрейт : 4000 Кбит/сек
    Максимальный битрейт : 14, 6 Мбит/сек
    Ширина : 1280 пикселей
    Высота : 720 пикселей
    Соотношение сторон : 16:9
    Режим частоты кадров : Постоянный
    Частота кадров : 23, 976 кадра/сек
    Частота кадров в оригинале : 23, 976 кадра/сек
    Цветовое пространство : YUV
    Субдискретизация насыщенности : 4:2:0
    Битовая глубина : 8 бит
    Тип развёртки : Прогрессивная
    Бит/(Пиксели*Кадры) : 0.181
    Размер потока : 1, 20 Гбайт (94%)
    Заголовок : Imported with GPAC 0.4.6-DEV (internal rev. 5)
    Библиотека кодирования : x264 core 112 r1834 a51816a
    Настройки программы : cabac=1/ref=4/deblock=1:-3:-2/analyse=0x3:0x113/me=hex/subme=7/psy=1/psy_rd=1.00:0.00/mixed_ref=1/me_range=16/chroma_me=1/trellis=1/8x8dct=1/cqm=0/deadzone=21, 11/fast_pskip=1/chroma_qp_offset=-2/threads=6/sliced_threads=0/nr=0/decimate=1/interlaced=0/constrained_intra=0/bframes=5/b_pyramid=2/b_adapt=1/b_bias=0/direct=1/weightb=1/open_gop=0/weightp=2/keyint=250/keyint_min=25/scenecut=40/intra_refresh=0/rc_lookahead=40/rc=2pass/mbtree=1/bitrate=4000/ratetol=1.0/qcomp=0.60/qpmin=0/qpmax=51/qpstep=4/cplxblur=20.0/qblur=0.5/vbv_maxrate=10000/vbv_bufsize=256000/ip_ratio=1.40/aq=1:1.00/nal_hrd=none
    Аудио
    Идентификатор : 2
    Формат : AAC
    Формат/Информация : Advanced Audio Codec
    Профиль формата : LC
    Идентификатор кодека : 40
    Продолжительность : 43 м.
    Вид битрейта : Переменный
    Битрейт : 255 Кбит/сек
    Максимальный битрейт : 310 Кбит/сек
    Каналы : 2 канала
    Расположение каналов : Front: L R
    Частота : 48, 0 КГц
    Частота кадров : 46, 875 кадров/сек
    Метод сжатия : С потерями
    Размер потока : 78, 4 Мбайт (6%)


    Ван Хельсинг/Van Helsing (2018) WEB-DLRip [H.264] (сезон 3, серии 1-6 из 13) LostFilm [MP4|1280x720] (обновляемая)
    Рейтинг →
     (голосов: 1, оценка 5/5, голосовать можно 1 раз )

    Другие торренты по теме:

  • Ван Хельсинг / Van Helsing (2004) BDRip [H.264 / 720р-LQ]
  • Ван Хельсинг / Van Helsing (2004) BDRip скачать через торрент бесплатно
  • Ван Хельсинг: Лондонское задание / Van Helsing: The London Assignment (2004) AC3 5.1 [Solod]
  • Ван Хельсинг / Van Helsing (2004) AC3 5.1 [Solod]
  • Ван Хельсинг / Van Helsing (2016) HDTVRip [H.264 / 720p-LQ] (сезон 1, серии 1 из 13) OmskBird (обновляемая)
  • Ван Хельсинг / Van Helsing (2016) HDTVRip (сезон 1, серии 1 из 13) OmskBird (обновляемая)
  • Ван Хельсинг / Van Helsing (2016) WEB-DLRip (сезон 1, серии 1 из 13) LostFilm (обновляемая)
  • Ван Хельсинг / Van Helsing (2016) WEB-DL [H.264 / 720p-LQ] (сезон 1, серии 1 из 13) BaibaKo (обновляемая)


    • Комментарии (0):

      Информация

      Информация

        Посетители, находящиеся в группе Гости, не могут оставлять комментарии в данной новости.

        ↓ Меню




        ↓ Опрос

        Вы добавили сайт в закладки?
        Да
        Нет


        Top 10 за месяц (КПК и мобильные)