.
Авторизация | Регистрация
Хочешь лучшие торренты? Добавь свой email!
Добавить

Торрент скачать бесплатно

  • support: webmaster@btracker.club
» » Миссия невыполнима: Последствия / Mission: Impossible - Fallout (2018) WEB-DLRip [H.264] [MP4|1280x676] [IMAX] торрент скачать бесплатно


    Миссия невыполнима: Последствия / Mission: Impossible - Fallout (2018) WEB-DLRip [H.264] [MP4|1280x676] [IMAX] торрент скачать бесплатно

    Опубликовал: fregat | Дата: 19-11-2018, 05:00 | .torrent скачали: 1

    Миссия невыполнима: Последствия / Mission: Impossible - Fallout (2018) WEB-DLRip [H.264] [MP4|1280x676] [IMAX]Производство: США, Bad Robot, Paramount Pictures, Skydance Productions, TC Productions
    Жанр: Боевик, Триллер, Приключения
    Режиссер: Кристофер МакКуорри
    Актеры: Том Круз, Ребекка Фергюсон, Генри Кавилл, Мишель Монахэн,
    Ванесса Кирби, Уэс Бентли, Саймон Пегг, Анджела Бассетт, Алек Болдуин, Винг Реймз

    Описание

    Итан Хант и его команда, а также недавно примкнувшие к ним союзники,
    вынуждены действовать наперегонки со временем, когда новая миссия идет не по плану.

    Возраст: 16+ (зрителям, достигшим 16 лет)
    Рейтинг MPAA: PG-13 (детям до 13 лет просмотр нежелателен)
    Дата мировой премьеры: 12.07.2018
    Дата российской премьеры: 26.07.2018
    Продолжительность: 02: 27: 25
    Качество видео: WEB-DLRip
    Перевод: Дублированный -iTunes
    Видео: AVC/H.264, 1280x676, ~1024 Kbps
    Аудио: AAC, 2 ch, 128 Kbps

    Общее
    Полное имя : Миссия невыполнима Последствия/Mission Impossible - Fallout (2018)_720p.mp4
    Формат : MPEG-4
    Профиль формата : Base Media
    Идентификатор кодека : isom (isom/iso2/avc1/mp41)
    Размер файла : 1, 22 Гбайт
    Продолжительность : 2 ч. 27 м.
    Общий поток : 1184 Кбит/сек
    Программа кодирования : Lavf56.25.101
    Видео
    Идентификатор : 1
    Формат : AVC
    Формат/Информация : Advanced Video Codec
    Профиль формата : High@L3.1
    Параметр CABAC формата : Да
    Параметр ReFrames формата : 4 кадра
    Идентификатор кодека : avc1
    Идентификатор кодека/Информация : Advanced Video Coding
    Продолжительность : 2 ч. 27 м.
    Битрейт : 1024 Кбит/сек
    Ширина : 1280 пикселей
    Высота : 676 пикселей
    Соотношение сторон : 1, 893
    Режим частоты кадров : Постоянный
    Частота кадров : 23, 976 (24000/1001) кадра/сек
    Цветовое пространство : YUV
    Субдискретизация насыщенности : 4: 2: 0
    Битовая глубина : 8 бит
    Тип развёртки : Прогрессивная
    Бит/(Пиксели*Кадры) : 0.049
    Размер потока : 1, 08 Гбайт (89%)
    Библиотека кодирования : x264 core 146
    Настройки программы : cabac=1/ref=2/deblock=1: 0: 0/analyse=0x3: 0x113/me=hex/subme=6/psy=1/psy_rd=1.00: 0.00/mixed_ref=1/me_range=16/chroma_me=1/trellis=1/8x8dct=1/cqm=0/deadzone=21, 11/fast_pskip=1/chroma_qp_offset=-2/threads=48/lookahead_threads=5/sliced_threads=0/nr=0/decimate=1/interlaced=0/bluray_compat=0/constrained_intra=0/bframes=3/b_pyramid=2/b_adapt=1/b_bias=0/direct=1/weightb=1/open_gop=0/weightp=1/keyint=50/keyint_min=5/scenecut=40/intra_refresh=0/rc_lookahead=30/rc=2pass/mbtree=1/bitrate=1024/ratetol=97.5/qcomp=0.60/qpmin=0/qpmax=69/qpstep=4/cplxblur=20.0/qblur=0.5/ip_ratio=1.40/aq=1: 1.00
    Аудио
    Идентификатор : 2
    Формат : AAC
    Формат/Информация : Advanced Audio Codec
    Профиль формата : LC
    Идентификатор кодека : 40
    Продолжительность : 2 ч. 27 м.
    Duration_LastFrame : -5 мс.
    Вид битрейта : Постоянный
    Битрейт : 128 Кбит/сек
    Каналы : 2 канала
    Расположение каналов : Front: L R
    Частота : 44, 1 КГц
    Частота кадров : 43, 066 кадра/сек (1024 spf)
    Метод сжатия : С потерями
    Размер потока : 135 Мбайт (11%)
    Default : Да
    Alternate group : 1
    Скриншоты:


    Все одноименные релизы в Клубе
    Время раздачи: С 23.00 До 08.00 по возможности (до появления первых 3-5 скачавших)


    Миссия невыполнима: Последствия/Mission: Impossible - Fallout (2018) WEB-DLRip [H.264] [MP4|1280x676] [IMAX]
    Рейтинг →
     (голосов: 1, оценка 5/5, голосовать можно 1 раз )

    Другие торренты по теме:

  • Миссия: невыполнима 5 / Mission: Impossible 5 (2015) WEBRip [1080p] [Трейлер] [EN] скачать через торрент бесплатно
  • Миссия невыполнима: Племя изгоев / Mission: Impossible - Rogue Nation (2015) WEBRip [1080p] [Трейлер] скачать через торрент бесплатно
  • Миссия невыполнима: Племя изгоев / Mission: Impossible - Rogue Nation (2015) WEBRip [H.264 / 1080p] [Трейлер #2] скачать через торрент бесплатно
  • Миссия невыполнима: Племя изгоев / Mission: Impossible - Rogue Nation (2015) DCPRip [2К] [Трейлер] скачать через торрент бесплатно
  • Миссия невыполнима: Племя изгоев / Mission: Impossible - Rogue Nation (2015) TS [EN] скачать через торрент бесплатно
  • Миссия невыполнима: Протокол Фантом / Mission: Impossible - Ghost Protocol (2011) HDRip [AVO] скачать через торрент бесплатно
  • Миссия невыполнима 3 / Mission: Impossible 3 (2006) HDRip [AVO] скачать через торрент бесплатно
  • Миссия невыполнима / Mission: Impossible (1996) HDRip [AVO] скачать через торрент бесплатно


    • Комментарии (0):

      Информация

      Информация

        Посетители, находящиеся в группе Гости, не могут оставлять комментарии в данной новости.

        ↓ Меню




        ↓ Опрос

        Вы добавили сайт в закладки?
        Да
        Нет


        Top 10 за месяц (КПК и мобильные)