.
Авторизация | Регистрация
Хочешь лучшие торренты? Добавь свой email!
Добавить

Торрент скачать бесплатно

  • support: webmaster@btracker.club
» » Спецназ города ангелов / S.W.A.T. (2018) WEB-DLRip [H.264] (сезон 2, серии 1-8 из 10) BaibaKo [MP4|720x400] [AD] (обновляемая) торрент скачать бесплатно


    Спецназ города ангелов / S.W.A.T. (2018) WEB-DLRip [H.264] (сезон 2, серии 1-8 из 10) BaibaKo [MP4|720x400] [AD] (обновляемая) торрент скачать бесплатно

    Опубликовал: fregat | Дата: 18-11-2018, 05:00 | .torrent скачали: 0

    Спецназ города ангелов / S.W.A.T. (2018) WEB-DLRip [H.264] (сезон 2, серии 1-8 из 10) BaibaKo [MP4|720x400] [AD] (обновляемая)Производство: США
    Жанр: боевик, триллер, драма, криминал, приключения
    Режиссер: Билл Джирхарт, Эгил Эгилссон, Джастин Лин
    Актеры: Шемар Мур, Кенни Джонсон, Дэвид Лим, Стефани Сигман, Патрик Ст. Эсприт, Аарон Бледсо, Лина Эско, Луис Ферриньо мл., Джей Хэррингтон, Джим Гэррити и др.

    Описание

    Лейтенанту полицейского спецназа Даниэлю Харрельсону поручают возглавить отряд вышколенных профессионалов с крутым нравом и отсутствием щепетильности при выполнении заданий. Эта команда — последняя надежда городских властей на восстановление правопорядка в Лос-Анджелесе...

    Дата мировой премьеры: 27 сентября 2018 (2 сезон)
    Продолжительность: ~00: 43: 00 серия
    Качество видео: WEB-DLRip
    Перевод: Многоголосый закадровый, профессиональный -BaibaKo
    Реклама: присутствуют голосовые и текстовые вставки
    Видео: AVC/H.264, 720x400 (16: 9), ~1500 kbps
    Аудио #1: AAC, 2 ch, 265 kbps - русский (MVO)
    Аудио #2: AAC, 2 ch, 265 kbps - английский

    Полное имя : D: S.W.A.T._s2_WEB-DLRip_x264_BaibaKo_NNM-CLUBS.W.A.T.s02e01.WEB-DLRip.x264.Rus.Eng.BaibaKo.tv.mp4
    Формат : MPEG-4
    Профиль формата : Base Media
    Идентификатор кодека : isom (isom)
    Размер файла : 628 Мбайт
    Продолжительность : 43 м.
    Режим общего битрейта : Переменный
    Общий поток : 2035 Кбит/сек
    Дата кодирования : UTC 2018-11-16 19: 15: 16
    Дата пометки : UTC 2018-11-16 19: 15: 16
    Видео
    Идентификатор : 1
    Формат : AVC
    Формат/Информация : Advanced Video Codec
    Профиль формата : Baseline@L3
    Параметр CABAC формата : Нет
    Параметр ReFrames формата : 3 кадра
    Идентификатор кодека : avc1
    Идентификатор кодека/Информация : Advanced Video Coding
    Продолжительность : 43 м.
    Битрейт : 1500 Кбит/сек
    Максимальный битрейт : 3600 Кбит/сек
    Ширина : 720 пикселей
    Высота : 400 пикселей
    Соотношение сторон : 16: 9
    Режим частоты кадров : Постоянный
    Частота кадров : 24, 000 кадра/сек
    Цветовое пространство : YUV
    Субдискретизация насыщенности : 4: 2: 0
    Битовая глубина : 8 бит
    Тип развёртки : Прогрессивная
    Бит/(Пиксели*Кадры) : 0.217
    Размер потока : 463 Мбайт (74%)
    Аудио #1
    Идентификатор : 2
    Формат : AAC
    Формат/Информация : Advanced Audio Codec
    Профиль формата : LC
    Идентификатор кодека : 40
    Продолжительность : 43 м.
    Вид битрейта : Переменный
    Битрейт : 265 Кбит/сек
    Максимальный битрейт : 336 Кбит/сек
    Каналы : 2 канала
    Расположение каналов : Front: L R
    Частота : 48, 0 КГц
    Частота кадров : 46, 875 кадров/сек (1024 spf)
    Метод сжатия : С потерями
    Размер потока : 82, 5 Мбайт (13%)
    Язык : Russian
    Аудио #2
    Идентификатор : 3
    Формат : AAC
    Формат/Информация : Advanced Audio Codec
    Профиль формата : LC
    Идентификатор кодека : 40
    Продолжительность : 43 м.
    Вид битрейта : Переменный
    Битрейт : 265 Кбит/сек
    Максимальный битрейт : 340 Кбит/сек
    Каналы : 2 канала
    Расположение каналов : Front: L R
    Частота : 48, 0 КГц
    Частота кадров : 46, 875 кадров/сек (1024 spf)
    Метод сжатия : С потерями
    Размер потока : 80, 8 Мбайт (13%)
    Язык : English


    Спецназ города ангелов/S.W.A.T. (2018) WEB-DLRip [H.264] (сезон 2, серии 1-8 из 10) BaibaKo [MP4|720x400] [AD] (обновляемая)
    Рейтинг →
     (голосов: 1, оценка 3/5, голосовать можно 1 раз )

    Другие торренты по теме:

  • Спецназ города ангелов / S.W.A.T. (2017) WEBRip [H.264 / 720p-LQ] (сезон 1, серии 1-8 из 12) BaibaKo (обновляемая) [AD]
  • Спецназ города ангелов / S.W.A.T. (2017) WEBRip [H.264] (сезон 1, серии 1-14 из 17) BaibaKo [MP4|720x400] [AD] (обновляемая)
  • S.W.A.T.: Спецназ города ангелов / S.W.A.T. (2003) BDRip [H.264 / 720p]


    • Комментарии (0):

      Информация

      Информация

        Посетители, находящиеся в группе Гости, не могут оставлять комментарии в данной новости.

        ↓ Меню




        ↓ Опрос

        Вы добавили сайт в закладки?
        Да
        Нет


        Top 10 за месяц (КПК и мобильные)

        Garmin: Дороги России Топо 6.29 [Ru]

        (скачиваний: 55)
        Махакали. Конец - это Начало / Mahakali / Mahakaali - Anth Hi Aarambh Hai (2017) WEB-DLRip [H.264] [MP4|1280x720] (серии 1-95 из 95) [HIN / RU Sub]

        (скачиваний: 29)
        Сборка iGO Primo NextGen 9.19.1.484935 WinCE [Ru / Multi] - навигационный программный комплекс для устройств с WinCE скачать через торрент бесплатно

        (скачиваний: 25)
        Прошивка Android KitKat 4.4.2 (Официальное обновление 01010 Europe (Android 4.4.2) для Alcatel One Touch Idol X+ (04.09.2014) <Ru>) скачать через торрент бесплатно

        (скачиваний: 22)
        SP Flash Tool 5.1516.00 [Ru] скачать через торрент бесплатно

        (скачиваний: 19)
        Wink v1.4.2.8 Full / 1.4.0.1 Full Android TV [Ru]

        (скачиваний: 18)
        Идущие к черту (2017–2019) WEBRip [H.264] (серии 1-3 из 3) [MP4|1280x720]

        (скачиваний: 17)
        Кукутики: Полная коллекция / (Kukutiki: Full collection) (2015-2018) WEB-DLRip [H.264] (Серии 1-79 из 79 + Караоке версии 1-16 из 16) [MP4|1280x720]

        (скачиваний: 16)
        NaviTel / Навител Навигатор v9.7.2493 WinCE [Ru]

        (скачиваний: 15)
        Карты для iGo 2018.Q3 HERE (NQ, NavTeq) Европа [Ru / Multi]

        (скачиваний: 14)