.
Авторизация | Регистрация

Торрент скачать бесплатно

  • support: webmaster@btracker.club
» » Вий (1967) WEB-DL [H.264] [MP4|1480x1080] торрент скачать бесплатно


    Вий (1967) WEB-DL [H.264] [MP4|1480x1080] торрент скачать бесплатно

    Дата: 4-11-2018, 05:00 | .torrent скачали: 8

    Вий (1967) WEB-DL [H.264] [MP4|1480x1080]Производство: СССР/Мосфильм
    Жанр: Ужасы, фэнтези, драма
    Режиссер: Георгий Кропачев, Константин Ершов
    Актеры: Леонид Куравлёв, Наталья Варлей, Алексей Глазырин, Николай Кутузов, Вадим Захарченко, Петр Вескляров, Владимир Сальников, Дмитрий Капка, Степан Шкурат, Георгий Сочевко и др.

    Описание

    Студент-философ Хома Брут должен провести несколько ночей у гроба умершей панночки в старой церквушке в далекой деревне. Сможет ли он побороть свой страх, или ему придется столкнуться с нечистой силой?..

    Возраст: 12+ (зрителям, достигшим 12 лет)
    Релиз от: Алехаndr
    Продолжительность: 01: 13: 22
    Качество видео: WEB-DL
    Субтитры: Отсутствуют
    Видео: AVC/H.264, 1480х1080, ~4325 Kbps
    Аудио: AAC, 2 ch, 174 Kbps

    Общее
    Полное имя : D: 1Вий (1967).by.Алехаndr.mp4
    Формат : MPEG-4
    Профиль формата : Base Media
    Идентификатор кодека : isom (isom/iso2/avc1/mp41)
    Размер файла : 2, 31 Гбайт
    Продолжительность : 1 ч. 13 м.
    Режим общего битрейта : Переменный
    Общий поток : 4502 Кбит/сек
    Программа кодирования : Lavf57.71.100
    Видео
    Идентификатор : 1
    Формат : AVC
    Формат/Информация : Advanced Video Codec
    Профиль формата : Main@L4
    Настройки формата : CABAC/1 Ref Frames
    Параметр CABAC формата : Да
    Параметр RefFrames формата : 1 кадр
    Параметр GOP формата : M=1, N=25
    Идентификатор кодека : avc1
    Идентификатор кодека/Информация : Advanced Video Coding
    Продолжительность : 1 ч. 13 м.
    Битрейт : 4323 Кбит/сек
    Ширина : 1480 пикселей
    Высота : 1080 пикселей
    Соотношение сторон : 1, 370
    Режим частоты кадров : Постоянный
    Частота кадров : 25, 000 кадров/сек
    Цветовое пространство : YUV
    Субдискретизация насыщенности : 4: 2: 0
    Битовая глубина : 8 бит
    Тип развёртки : Прогрессивная
    Бит/(Пиксели*Кадры) : 0.108
    Размер потока : 2, 22 Гбайт (96%)
    Codec configuration box : avcC
    Аудио
    Идентификатор : 2
    Формат : AAC LC
    Формат/Информация : Advanced Audio Codec Low Complexity
    Идентификатор кодека : mp4a-40-2
    Продолжительность : 1 ч. 13 м.
    Вид битрейта : Переменный
    Битрейт : 174 Кбит/сек
    Максимальный битрейт : 192 Кбит/сек
    Каналы : 2 канала
    Channel layout : L R
    Частота : 48, 0 КГц
    Частота кадров : 46, 875 кадров/сек (1024 SPF)
    Метод сжатия : С потерями
    Размер потока : 91, 4 Мбайт (4%)
    Default : Да
    AlternateGroup/String : 1
    Скриншоты:


    Все одноименные релизы в Клубе
    Время раздачи: 24/7 (круглосуточно) (до появления первых 3-5 скачавших)


    Вий (1967) WEB-DL [H.264] [MP4|1480x1080]
    Рейтинг →
     (голосов: 1, оценка 4/5, голосовать можно 1 раз )

    Другие торренты по теме:

  • Астерикс и тайное зелье / Asterix: Le secret de la potion magique (2018) WEB-DL [H.264 / 1080p-LQ]
  • Нежная рука закона / En liberte! (2018) WEB-DL [H.264 / 1080p-LQ]
  • Руперт, Руперт и ещё раз Руперт / Rupert, Rupert & Rupert (2019) WEB-DL [H.264 / 1080p-LQ] [MVO]
  • Хоккей. Чемпионат Мира 2019. Группа A. Дания — США (18.05.2019) WEB-DL [H.264 / 720p-LQ]
  • Малышарики. Серия 150: На помощь! (2019) WEB-DL [H.264 / 1080p-LQ]
  • Домовой (2019) WEB-DL [H.264 / 1080p-LQ]
  • Домовой (2019) WEB-DL [H.264 / 720p-LQ]
  • Zutto Mae Kara Suki Deshita.: Kokuhaku Jikkou Iinkai / Исполнительный комитет признаний в любви [2016, Movie] WEB-DL 1080p raw


    • Комментарии (0):

      Информация

      Информация

        Посетители, находящиеся в группе Гости, не могут оставлять комментарии в данной новости.

        ↓ Меню




        ↓ Опрос

        Вы добавили сайт в закладки?
        Да
        Нет


        Top 10 за месяц (КПК и мобильные)