.
Авторизация | Регистрация
Хочешь лучшие торренты? Добавь свой email!
Добавить

Торрент скачать бесплатно

  • support: webmaster@btracker.club
» » Пока бьют часы (1976) DVDRip [H.264] [MP4|688x440] торрент скачать бесплатно


    Пока бьют часы (1976) DVDRip [H.264] [MP4|688x440] торрент скачать бесплатно

    Опубликовал: fregat | Дата: 1-11-2018, 05:01 | .torrent скачали: 0

    Пока бьют часы (1976) DVDRip [H.264] [MP4|688x440]Производство: СССР, Центральная киностудия детских и юношеских фильмов им. Горького.
    Жанр: Детский, Сказка, Музыкальный
    Режиссер: Геннадий Васильев
    Актеры: М. Сергеечева, Г. Вицин, Н. Тенищева, М. Барабанова, П.Степанов, В. Фролин, О. Пудиков

    Описание

    Школьница Маша попадает в сказочный город тружеников, которых с помощью слуг и колпака-невидимки угнетает король Кроподин I. До того, как жители избавятся от угнетателей, Маша будет участницей этих событий и приключений.

    Возраст: 12+ (зрителям, достигшим 12 лет)
    Релиз от: ntgl
    Продолжительность: 01: 15: 47
    Качество видео: DVDRip
    Субтитры: отсутствуют
    Видео: AVC/H.264, 688x440, ~1013 kb/s
    Аудио: AAC, 2 ch, 48 kb/s

    General
    Complete name : G: Video2ДетскоеКиноПокаБьютЧасы.mp4
    Format : MPEG-4
    Format profile : Base Media
    Codec ID : isom (isom)
    File size : 577 MiB
    Duration : 1 h 15 min
    Overall bit rate mode : Variable
    Overall bit rate : 1 064 kb/s
    Encoded date : UTC 2018-10-25 07: 01: 34
    Tagged date : UTC 2018-10-25 07: 01: 34
    Video
    ID : 1
    Format : AVC
    Format/Info : Advanced Video Codec
    Format profile : High@L3
    Format settings : CABAC/4 Ref Frames
    Format settings, CABAC : Yes
    Format settings, RefFrames : 4 frames
    Codec ID : avc1
    Codec ID/Info : Advanced Video Coding
    Duration : 1 h 15 min
    Bit rate : 1 013 kb/s
    Maximum bit rate : 2 814 kb/s
    Width : 688 pixels
    Height : 440 pixels
    Display aspect ratio : 1.706
    Frame rate mode : Constant
    Frame rate : 25.000 FPS
    Color space : YUV
    Chroma subsampling : 4: 2: 0
    Bit depth : 8 bits
    Scan type : Progressive
    Bits/(Pixel*Frame) : 0.134
    Stream size : 549 MiB (95%)
    Writing library : x264 core 155 r2901 7d0ff22
    Encoding settings : cabac=1/ref=3/deblock=1: 0: 0/analyse=0x3: 0x113/me=hex/subme=7/psy=1/psy_rd=1.00: 0.00/mixed_ref=1/me_range=16/chroma_me=1/trellis=1/8x8dct=1/cqm=0/deadzone=21, 11/fast_pskip=1/chroma_qp_offset=-2/threads=12/lookahead_threads=2/sliced_threads=0/nr=0/decimate=1/interlaced=0/bluray_compat=0/constrained_intra=0/bframes=3/b_pyramid=2/b_adapt=1/b_bias=0/direct=1/weightb=1/open_gop=0/weightp=2/keyint=250/keyint_min=25/scenecut=40/intra_refresh=0/rc_lookahead=40/rc=crf/mbtree=1/crf=23.0/qcomp=0.60/qpmin=0/qpmax=69/qpstep=4/ip_ratio=1.40/aq=1: 1.00
    Encoded date : UTC 2018-10-25 06: 58: 00
    Tagged date : UTC 2018-10-25 07: 01: 46
    Codec configuration box : avcC
    Audio
    ID : 2
    Format : AAC LC SBR
    Format/Info : Advanced Audio Codec Low Complexity with Spectral Band Replication
    Commercial name : HE-AAC
    Format settings : Explicit
    Codec ID : mp4a-40-2
    Duration : 1 h 15 min
    Bit rate mode : Variable
    Bit rate : 48.0 kb/s
    Maximum bit rate : 54.8 kb/s
    Channel(s) : 2 channels
    Channel layout : L R
    Sampling rate : 48.0 kHz
    Frame rate : 23.438 FPS (2048 SPF)
    Compression mode : Lossy
    Stream size : 26.0 MiB (5%)
    Language : Russian
    Encoded date : UTC 2018-10-25 06: 58: 53
    Tagged date : UTC 2018-10-25 07: 01: 46
    Скриншоты:


    Все одноименные релизы в Клубе
    Время раздачи: 24/7 (до появления первых 3-5 скачавших)


    Пока бьют часы (1976) DVDRip [H.264] [MP4|688x440]
    Рейтинг →
     (голосов: 1, оценка 5/5, голосовать можно 1 раз )

    Другие торренты по теме:

  • Пока гром не грянет (1967) TVRip
  • Пока живу, люблю (2013) HDTVRip [H.264 / 1080p-LQ] (1-4 серии из 4) скачать через торрент бесплатно
  • Пока станица спит (2014) SATRip [серии 200-262 из 270] (обновляемая)
  • Пока я не исчезну / Before I Disappear (2014) WEB-DLRip [VO] скачать через торрент бесплатно
  • Пока я не исчезну / Before I Disappear (2014) WEB-DL [720p] ATV скачать через торрент бесплатно
  • ChipaChip - Пока верит в нас Тайлер (2015) [MP3|320 кб / с]<Rap, Hip-Hop> скачать через торрент бесплатно
  • Пока мы молоды / While Were Young (2014) BDRip [H.264 / 720p-LQ] скачать через торрент бесплатно
  • Андреа Рок | Мозг во сне. Что происходит с мозгом, пока мы спим (2015) [EPUB, MOBI, PDF] скачать через торрент бесплатно


    • Комментарии (0):

      Информация

      Информация

        Посетители, находящиеся в группе Гости, не могут оставлять комментарии в данной новости.

        ↓ Меню




        ↓ Опрос

        Вы добавили сайт в закладки?
        Да
        Нет


        Top 10 за месяц (КПК и мобильные)