.
Авторизация | Регистрация
Хочешь лучшие торренты? Добавь свой email!
Добавить

Торрент скачать бесплатно

  • support: webmaster@btracker.club
» » Discovery: Махинаторы / Wheeler Dealers. 1986 Audi Quattro (2009) HDTVRip [H.264] (Сезон 6, Серии 5-6) [MP4|1920x1080] торрент скачать бесплатно


    Discovery: Махинаторы / Wheeler Dealers. 1986 Audi Quattro (2009) HDTVRip [H.264] (Сезон 6, Серии 5-6) [MP4|1920x1080] торрент скачать бесплатно

    Опубликовал: fregat | Дата: 31-10-2018, 05:00 | .torrent скачали: 0

    Discovery: Махинаторы / Wheeler Dealers. 1986 Audi Quattro (2009) HDTVRip [H.264] (Сезон 6, Серии 5-6) [MP4|1920x1080]Производство: Великобритания, AttaBoy for Discovery Channel
    Жанр: Документальный
    Участники: Майк Брюэр, Эд Хина, Paul Brackley

    Описание

    Сюжет программы — покупка, реставрирование и перепродажа с выгодой, классического автомобиля (обычно авто конца 70-х, 80-х годов). Бюджет всегда ограничен, к примеру, в первом сезоне он составлял 1000 , во 2-м — 2000 , в 3-м — 3000 . Иногда Майк добивается разрешения продюсера на увеличение суммы для покупки эксклюзивных и редких авто.
    Майк покупает машину, передаёт её механику Эду на починку и потом продаёт её новому владельцу, а как это у них получится, смотрите сами...

    Релиз от: ROLEX-SABAN
    Продолжительность: 00: 44: 08
    Качество видео: HDTVRip
    Перевод: Одноголосый закадровый, профессиональный
    Видео: AVC/H.264, 1920x1080, ~4980 Kbps
    Аудио: AAC, 2 ch, 192 kb/s

    General
    Complete name : T: -VIDEO-Wheeler Dealers-1986-Audi-Quattro-S6-E5-61080i-HD.mp4
    Format : MPEG-4
    Format profile : Sony PSP
    Codec ID : MSNV (MSNV/isom/mp42)
    File size : 1.59 GiB
    Duration : 44 min 8 s
    Overall bit rate : 5 173 kb/s
    Encoded date : UTC 2018-10-20 12: 55: 32
    Tagged date : UTC 2018-10-20 12: 55: 32
    Video
    ID : 1
    Format : AVC
    Format/Info : Advanced Video Codec
    Format profile : High@L4
    Format settings : CABAC/2 Ref Frames
    Format settings, CABAC : Yes
    Format settings, ReFrames : 2 frames
    Format settings, GOP : M=3, N=13
    Codec ID : avc1
    Codec ID/Info : Advanced Video Coding
    Duration : 44 min 8 s
    Bit rate : 4 978 kb/s
    Width : 1 920 pixels
    Height : 1 080 pixels
    Display aspect ratio : 16: 9
    Frame rate mode : Constant
    Frame rate : 25.000 FPS
    Color space : YUV
    Chroma subsampling : 4: 2: 0
    Bit depth : 8 bits
    Scan type : Progressive
    Bits/(Pixel*Frame) : 0.096
    Stream size : 1.53 GiB (96%)
    Language : English
    Encoded date : UTC 2018-10-20 12: 55: 32
    Tagged date : UTC 2018-10-20 12: 55: 32
    Codec configuration box : avcC
    Audio
    ID : 2
    Format : AAC LC
    Format/Info : Advanced Audio Codec Low Complexity
    Codec ID : mp4a-40-2
    Duration : 44 min 8 s
    Source duration : 44 min 8 s
    Bit rate mode : Constant
    Bit rate : 192 kb/s
    Channel(s) : 2 channels
    Channel layout : L R
    Sampling rate : 48.0 kHz
    Frame rate : 46.875 FPS (1024 SPF)
    Compression mode : Lossy
    Stream size : 60.6 MiB (4%)
    Source stream size : 60.6 MiB (4%)
    Language : Russian
    Encoded date : UTC 2018-10-20 12: 55: 32
    Tagged date : UTC 2018-10-20 12: 55: 32
    mdhd_Duration : 2648017


    Discovery: Махинаторы/Wheeler Dealers. 1986 Audi Quattro (2009) HDTVRip [H.264] (Сезон 6, Серии 5-6) [MP4|1920x1080]
    Рейтинг →
     (голосов: 1, оценка 5/5, голосовать можно 1 раз )

    Другие торренты по теме:

  • Discovery. Махинаторы (Автодилеры) / Wheeler Dealers. Ford Thunderbird (2014) HDTVRip [720i] (Сезон 11, серия 8) скачать через торрент бесплатно
  • Discovery. Махинаторы (Автодилеры) / Wheeler Dealers. Jaguar XJ-C (2014) HDTVRip [720i] (Сезон 11, серия 9)
  • Discovery. Махинаторы (Автодилеры) / Lincoln Continental (2014) HDTVRip [720i] (Сезон 11, серия 14)
  • Discovery. Махинаторы (Автодилеры) / Darracq (2014) HDTVRip [720i] (Сезон 11, серия 13)
  • Discovery. Махинаторы (Автодилеры) / Wheeler Dealers. BMW Z1 (2014) HDTVRip [720i] (Сезон 11, серия 12)
  • Discovery. Махинаторы (Автодилеры) / Wheeler Dealers. Volkswagen Type 2 (2014) HDTVRip [720i] (Сезон 11, серия 11)
  • Discovery. Махинаторы (Автодилеры) / Wheeler Dealers. Audi TT (2014) HDTVRip [720i] (Сезон 11, серия 10)
  • Discovery. Махинаторы (Автодилеры) / Pontiac GTO Hardtop (2014) HDTVRip [720p] (Сезон 12, серия 1) скачать через торрент бесплатно


    • Комментарии (0):

      Информация

      Информация

        Посетители, находящиеся в группе Гости, не могут оставлять комментарии в данной новости.

        ↓ Меню




        ↓ Опрос

        Вы добавили сайт в закладки?
        Да
        Нет


        Top 10 за месяц (КПК и мобильные)