.
Авторизация | Регистрация
Хочешь лучшие торренты? Добавь свой email!
Добавить

Торрент скачать бесплатно

  • support: webmaster@btracker.club
» » Discovery: Махинаторы / Wheeler Dealers (2018) HDTVRip [H.264] (Сезон 15, серия 3) 2004-Mini-Cooper-S-MC40 [MP4|1920x1080] торрент скачать бесплатно


    Discovery: Махинаторы / Wheeler Dealers (2018) HDTVRip [H.264] (Сезон 15, серия 3) 2004-Mini-Cooper-S-MC40 [MP4|1920x1080] торрент скачать бесплатно

    Опубликовал: fregat | Дата: 31-10-2018, 05:00 | .torrent скачали: 0

    Discovery: Махинаторы / Wheeler Dealers (2018) HDTVRip [H.264] (Сезон 15, серия 3) 2004-Mini-Cooper-S-MC40 [MP4|1920x1080]Производство: Великобритания, Velocity for Discovery Channel
    Жанр: Документальный
    Участники: Майк Брюэр, Энт Энстед

    Описание

    Торговец автомобилями Майк Брюер и талантливый механик Энт Энстед взвалили на себя титанический труд: находить и восстанавливать классические автомобили, чтобы выгодно продавать их в своем магазине в Лос-Анжелесе. Майк взял на себя непростую задачу поиска машин, на которых можно заработать, а Энт делает все возможное, чтобы вновь поставить их на колеса. Команда прочесывает как солнечные пляжи на юге Калифорнии, так и самые холодные уголки штата Мэн, чтобы найти экземпляр, который можно купить, отреставрировать, испытать и продать с хорошей наценкой. Какие сокровища попадутся им на пути во время этих эпических приключений? Узнаем совсем скоро!

    Релиз от: ROLEX-SABAN
    Продолжительность: 00: 43: 51
    Качество видео: HDTVRip
    Перевод: Одноголосый закадровый, профессиональный
    Видео: AVC/H.264, 1920x1080, ~4996 Kbps
    Аудио: AAC, 2 ch, 192 kb/s

    Format : MPEG-4
    Format profile : Sony PSP
    Codec ID : MSNV (MSNV/isom/mp42)
    File size : 1.59 GiB
    Duration : 43 min 51 s
    Overall bit rate : 5 191 kb/s
    Encoded date : UTC 2018-10-23 08: 48: 33
    Tagged date : UTC 2018-10-23 08: 48: 33
    Video
    ID : 1
    Format : AVC
    Format/Info : Advanced Video Codec
    Format profile : High@L4
    Format settings : CABAC/2 Ref Frames
    Format settings, CABAC : Yes
    Format settings, ReFrames : 2 frames
    Format settings, GOP : M=3, N=13
    Codec ID : avc1
    Codec ID/Info : Advanced Video Coding
    Duration : 43 min 51 s
    Bit rate : 4 996 kb/s
    Width : 1 920 pixels
    Height : 1 080 pixels
    Display aspect ratio : 16: 9
    Frame rate mode : Constant
    Frame rate : 25.000 FPS
    Color space : YUV
    Chroma subsampling : 4: 2: 0
    Bit depth : 8 bits
    Scan type : Progressive
    Bits/(Pixel*Frame) : 0.096
    Stream size : 1.53 GiB (96%)
    Language : English
    Encoded date : UTC 2018-10-23 08: 48: 33
    Tagged date : UTC 2018-10-23 08: 48: 33
    Codec configuration box : avcC
    Audio
    ID : 2
    Format : AAC LC
    Format/Info : Advanced Audio Codec Low Complexity
    Codec ID : mp4a-40-2
    Duration : 43 min 51 s
    Source duration : 43 min 51 s
    Bit rate mode : Constant
    Bit rate : 192 kb/s
    Channel(s) : 2 channels
    Channel layout : L R
    Sampling rate : 48.0 kHz
    Frame rate : 46.875 FPS (1024 SPF)
    Compression mode : Lossy
    Stream size : 60.2 MiB (4%)
    Source stream size : 60.2 MiB (4%)
    Language : English
    Encoded date : UTC 2018-10-23 08: 48: 33
    Tagged date : UTC 2018-10-23 08: 48: 33
    mdhd_Duration : 2631100
    Скриншоты:


    Все одноименные релизы в Клубе
    Время раздачи: 24/7 (до появления первых 3-5 скачавших)


    Discovery: Махинаторы/Wheeler Dealers (2018) HDTVRip [H.264] (Сезон 15, серия 3) 2004-Mini-Cooper-S-MC40 [MP4|1920x1080]
    Рейтинг →
     (голосов: 1, оценка 4/5, голосовать можно 1 раз )

    Другие торренты по теме:

  • Discovery. Махинаторы (Автодилеры) / Wheeler Dealers. Ford Thunderbird (2014) HDTVRip [720i] (Сезон 11, серия 8) скачать через торрент бесплатно
  • Discovery. Махинаторы (Автодилеры) / Wheeler Dealers. Jaguar XJ-C (2014) HDTVRip [720i] (Сезон 11, серия 9)
  • Discovery. Махинаторы (Автодилеры) / Lincoln Continental (2014) HDTVRip [720i] (Сезон 11, серия 14)
  • Discovery. Махинаторы (Автодилеры) / Darracq (2014) HDTVRip [720i] (Сезон 11, серия 13)
  • Discovery. Махинаторы (Автодилеры) / Wheeler Dealers. BMW Z1 (2014) HDTVRip [720i] (Сезон 11, серия 12)
  • Discovery. Махинаторы (Автодилеры) / Wheeler Dealers. Volkswagen Type 2 (2014) HDTVRip [720i] (Сезон 11, серия 11)
  • Discovery. Махинаторы (Автодилеры) / Wheeler Dealers. Audi TT (2014) HDTVRip [720i] (Сезон 11, серия 10)
  • Discovery. Махинаторы (Автодилеры) / Pontiac GTO Hardtop (2014) HDTVRip [720p] (Сезон 12, серия 1) скачать через торрент бесплатно


    • Комментарии (0):

      Информация

      Информация

        Посетители, находящиеся в группе Гости, не могут оставлять комментарии в данной новости.

        ↓ Меню




        ↓ Опрос

        Вы добавили сайт в закладки?
        Да
        Нет


        Top 10 за месяц (КПК и мобильные)