.
Авторизация | Регистрация
Хочешь лучшие торренты? Добавь свой email!
Добавить

Торрент скачать бесплатно

  • support: webmaster@btracker.club
» » Мажор (2018) SATRip [H.264] (сезон 3, серии 1 из 16) [MP4|720x400] (обновляемая) торрент скачать бесплатно


    Мажор (2018) SATRip [H.264] (сезон 3, серии 1 из 16) [MP4|720x400] (обновляемая) торрент скачать бесплатно

    Опубликовал: fregat | Дата: 30-10-2018, 05:00 | .torrent скачали: 2

    Мажор (2018) SATRip [H.264] (сезон 3, серии 1 из 16) [MP4|720x400] (обновляемая)Производство: Россия
    Жанр: Драма, криминал
    Режиссер: Игорь Твердохлебов
    Актеры: Павел Прилучный, Карина Разумовская, Любовь Аксенова, Дмитрий Шевченко, Александр Обласов, Дмитрий Лысенков, Игорь Черневич, Михаил Елисеев, Андрей Погребинский, Вадим Дубровин

    Описание

    Игорь Соколовский давно перестал быть тем Мажором, для которого служба в полиции — вынужденная ссылка. Давняя смерть матери и недавнее убийство отца — два события, определившие его дальнейшую жизнь — могут быть раскрыты во многом благодаря этой службе. Мажор растет как профессионал, ежедневно работая над раскрытием различных преступлений, но расследование главной драмы его жизни ставит перед ним новые задачи. Чтобы отомстить за смерть отца, он в совершенстве овладел бизнес-стратегиями, чтобы найти и наказать убийцу матери, ему нужно освоить нечто совершенно новое. И самое сложное при этом — остаться в рамках закона. В поисках преступника Мажор окажется у черты, но останутся ли у него законные средства, чтобы наказать убийцу?

    Возраст: 16+ (зрителям, достигшим 16 лет)
    Дата российской премьеры: 29 октября 2018
    Продолжительность: ~00: 48: 00 серия
    Качество видео: SATRip
    Субтитры: Отсутствуют
    Видео: AVC/H.264, 720x400 (16: 9), ~1480 Kbps
    Аудио: AAC, 2 ch, 132 Kbps

    Общее
    Полное имя : G: Мажор (2018)Серия 01.mp4
    Формат : MPEG-4
    Профиль формата : Base Media
    Идентификатор кодека : isom (isom/iso2/avc1/mp41)
    Размер файла : 550 Мбайт
    Продолжительность : 47 м. 40 с.
    Общий поток : 1613 Кбит/сек
    Программа кодирования : Lavf57.71.100
    Видео
    Идентификатор : 1
    Формат : AVC
    Формат/Информация : Advanced Video Codec
    Профиль формата : Main@L3
    Настройки формата : CABAC/2 Ref Frames
    Параметр CABAC формата : Да
    Параметр RefFrames формата : 2 кадра
    Параметр GOP формата : M=1, N=25
    Идентификатор кодека : avc1
    Идентификатор кодека/Информация : Advanced Video Coding
    Продолжительность : 47 м. 40 с.
    Битрейт : 1477 Кбит/сек
    Ширина : 720 пикселей
    Высота : 400 пикселей
    Соотношение сторон : 16: 9
    Режим частоты кадров : Постоянный
    Частота кадров : 25, 000 кадров/сек
    Цветовое пространство : YUV
    Субдискретизация насыщенности : 4: 2: 0
    Битовая глубина : 8 бит
    Тип развёртки : Прогрессивная
    Бит/(Пиксели*Кадры) : 0.205
    Размер потока : 504 Мбайт (92%)
    Codec configuration box : avcC
    Аудио
    Идентификатор : 2
    Формат : AAC LC
    Формат/Информация : Advanced Audio Codec Low Complexity
    Идентификатор кодека : mp4a-40-2
    Продолжительность : 47 м. 40 с.
    Вид битрейта : Постоянный
    Битрейт : 132 Кбит/сек
    Каналы : 2 канала
    Channel layout : L R
    Частота : 48, 0 КГц
    Частота кадров : 46, 875 кадров/сек (1024 SPF)
    Метод сжатия : С потерями
    Размер потока : 44, 8 Мбайт (8%)
    Default : Да
    AlternateGroup/String : 1


    Мажор (2018) SATRip [H.264] (сезон 3, серии 1 из 16) [MP4|720x400] (обновляемая)
    Рейтинг →
     (голосов: 1, оценка 3/5, голосовать можно 1 раз )

    Другие торренты по теме:

  • Профессия репортер. Батальон мажор (2014.10.25) SATRip скачать через торрент бесплатно
  • Мажор (2014) SATRip (серии 1-4 из 12) (обновляемая) скачать через торрент бесплатно
  • Мажор (2016) SATRip (сезон 2, серии 1-2 из 12) (обновляемая)
  • Мажор (2016) SATRip [H.264] (сезон 2, серии 1-4 из 12) (Обновляемая)
  • Мажор (2018) SATRip [H.264] (сезон 3, серии 1 из 16) (обновляемая)
  • Мажор (2018) SATRip (сезон 3, серии 1 из 16) (обновляемая)


    • Комментарии (0):

      Информация

      Информация

        Посетители, находящиеся в группе Гости, не могут оставлять комментарии в данной новости.

        ↓ Меню




        ↓ Опрос

        Вы добавили сайт в закладки?
        Да
        Нет


        Top 10 за месяц (КПК и мобильные)