.
Авторизация | Регистрация
Хочешь лучшие торренты? Добавь свой email!
Добавить

Торрент скачать бесплатно

  • support: webmaster@btracker.club
» » Ходячие мертвецы / The Walking Dead (2018) WEBRip [H.264] (Сезон 9, серии 1 из 16) BaibaKo [MP4|720x400] [AD] (обновляемая) торрент скачать бесплатно


    Ходячие мертвецы / The Walking Dead (2018) WEBRip [H.264] (Сезон 9, серии 1 из 16) BaibaKo [MP4|720x400] [AD] (обновляемая) торрент скачать бесплатно

    Опубликовал: fregat | Дата: 30-10-2018, 05:00 | .torrent скачали: 0

    Ходячие мертвецы / The Walking Dead (2018) WEBRip [H.264] (Сезон 9, серии 1 из 16) BaibaKo [MP4|720x400] [AD] (обновляемая)Производство: США
    Жанр: Ужасы, мистика, триллер
    Режиссер: Эрнест Р. Дикерсон, Билл Джирхарт, Гай Ферленд
    Актеры: Эндрю Линкольн, Сара Уэйн Кэллис, Лори Холден, Стивен Юн, Чендлер Риггз, Норман Ридус, Айрон Э. Синглтон, Мелисса Сюзанн МакБрайд, Лорен Коэн, Джон Бернтал и др.

    Описание

    Сериал рассказывает историю жизни семьи шерифа после того, как зомби — эпидемия апокалипсических масштабов захлестнула земной шар. Шериф Рик Грайм путешествует со своей семьей и небольшой группой выживших в поисках безопасного места для жизни. Но постоянный страх смерти каждый день приносит тяжелые потери, заставляя героев почувствовать глубины человеческой жестокости. Рик пытается спасти свою семью, и открывает для себя, что всепоглощающий страх тех, кто выжил, может быть опаснее бессмысленных мертвецов, бродящих по земле...

    Дата мировой премьеры: 7 октября 2018 (9 сезон)
    Возраст: 18+ (зрителям, достигшим 18 лет. запрещено для детей)
    Продолжительность: ~ 00: 45: 00 серия
    Качество видео: WEBRip
    Перевод: Многоголосый закадровый, профессиональный -BaibaKo
    Реклама: присутствуют голосовые и текстовые вставки
    Видео: AVC/H.264, 720x400 (16: 9), ~1496 Kbps
    Аудио #1: AAC, ch, 258 Kbps - русский (многоголосый закадровый)
    Аудио #2: AAC, ch, 236 Kbps - английский (оригинальный)

    Полное имя : C: The_Walking_Dead_s9_WEBRip_x264_BaibaKo_NNM-CLUBThe.Walking.Dead.s09e01.WEBRip.x264.Rus.Eng.BaibaKo.tv.mp4
    Формат : MPEG-4
    Профиль формата : Base Media
    Идентификатор кодека : isom (isom/avc1)
    Размер файла : 846 Мбайт
    Продолжительность : 59 м.
    Режим общего битрейта : Переменный
    Общий поток : 1994 Кбит/сек
    Дата кодирования : UTC 2018-10-08 13: 02: 15
    Дата пометки : UTC 2018-10-08 13: 02: 15
    Программа кодирования : StaxRip 1.7.0.6
    Видео
    Идентификатор : 1
    Формат : AVC
    Формат/Информация : Advanced Video Codec
    Профиль формата : Baseline@L3
    Параметр CABAC формата : Нет
    Параметр ReFrames формата : 3 кадра
    Идентификатор кодека : avc1
    Идентификатор кодека/Информация : Advanced Video Coding
    Продолжительность : 59 м.
    Битрейт : 1496 Кбит/сек
    Максимальный битрейт : 3440 Кбит/сек
    Ширина : 720 пикселей
    Высота : 400 пикселей
    Соотношение сторон : 16: 9
    Режим частоты кадров : Постоянный
    Частота кадров : 23, 976 (24000/1001) кадра/сек
    Цветовое пространство : YUV
    Субдискретизация насыщенности : 4: 2: 0
    Битовая глубина : 8 бит
    Тип развёртки : Прогрессивная
    Бит/(Пиксели*Кадры) : 0.217
    Размер потока : 635 Мбайт (75%)
    Дата кодирования : UTC 2018-10-08 13: 02: 15
    Дата пометки : UTC 2018-10-08 13: 02: 21
    Аудио #1
    Идентификатор : 2
    Формат : AAC
    Формат/Информация : Advanced Audio Codec
    Профиль формата : LC
    Идентификатор кодека : 40
    Продолжительность : 59 м.
    Вид битрейта : Переменный
    Битрейт : 258 Кбит/сек
    Максимальный битрейт : 370 Кбит/сек
    Каналы : 2 канала
    Расположение каналов : Front: L R
    Частота : 48, 0 КГц
    Частота кадров : 46, 875 кадров/сек (1024 spf)
    Метод сжатия : С потерями
    Размер потока : 109 Мбайт (13%)
    Язык : Russian
    Дата кодирования : UTC 2018-10-08 12: 53: 34
    Дата пометки : UTC 2018-10-08 13: 02: 21
    Аудио #2
    Идентификатор : 3
    Формат : AAC
    Формат/Информация : Advanced Audio Codec
    Профиль формата : LC
    Идентификатор кодека : 40
    Продолжительность : 59 м.
    Вид битрейта : Переменный
    Битрейт : 236 Кбит/сек
    Максимальный битрейт : 367 Кбит/сек
    Каналы : 2 канала
    Расположение каналов : Front: L R
    Частота : 48, 0 КГц
    Частота кадров : 46, 875 кадров/сек (1024 spf)
    Метод сжатия : С потерями
    Размер потока : 100 Мбайт (12%)
    Язык : English
    Дата кодирования : UTC 2018-10-08 12: 53: 34
    Дата пометки : UTC 2018-10-08 13: 02: 21


    Ходячие мертвецы/The Walking Dead (2018) WEBRip [H.264] (Сезон 9, серии 1 из 16) BaibaKo [MP4|720x400] [AD] (обновляемая)
    Рейтинг →
     (голосов: 1, оценка 4/5, голосовать можно 1 раз )

    Другие торренты по теме:

  • Ходячие мертвецы / The Walking Dead (2014) HDTVRip [Сезон 5, Серия 1] [Kerob] скачать через торрент бесплатно
  • Ходячие мертвецы / The Walking Dead (2014) WEB-DLRip (сезон 5, серии 1 из 16) BaibaKo (Обновляемая)
  • Ходячие мертвецы / The Walking Dead (2014) WEB-DL [H.264 / 1080p-LQ] (Сезон 5, Серия 1 из 16) (Fox) (Обновляемая)
  • Ходячие мертвецы / The Walking Dead (2014-2015) WEB-DLRip (Сезон 5, серия 1 из 16) (FOX) (обновляемая)
  • Ходячие мертвецы (The Walking Dead) / (Сезон 4, серии 1-16 из 16) LostFilm (2013) [MP4|1280x718] <WEB-DL [H.264]>
  • Ходячие мертвецы / The Walking Dead (2014) WEB-DL [H.264 / 720p-LQ] (сезон 5, серии 1 из 16) LostFilm (обновляемая) скачать через торрент бесплатно
  • Ходячие мертвецы / The Walking Dead (2014) WEB-DLRip (сезон 5, серии 1 из 16) LostFilm (обновляемая) скачать через торрент бесплатно
  • Ходячие мертвецы / The Walking Dead (2014) WEB-DL [H.264 / 1080p-LQ] (Сезон 5, серия 1 из 16) (LostFilm) (обновляемая) скачать через торрент бесплатно


    • Комментарии (0):

      Информация

      Информация

        Посетители, находящиеся в группе Гости, не могут оставлять комментарии в данной новости.

        ↓ Меню




        ↓ Опрос

        Вы добавили сайт в закладки?
        Да
        Нет


        Top 10 за месяц (КПК и мобильные)