.
Авторизация | Регистрация
Хочешь лучшие торренты? Добавь свой email!
Добавить

Торрент скачать бесплатно

  • support: webmaster@btracker.club
» » Человек-Невидимка (2017-2018) WEB-DLRip [H.264] (12 сезон: 16 выпусков из 16) [MP4|1280x720] торрент скачать бесплатно


    Человек-Невидимка (2017-2018) WEB-DLRip [H.264] (12 сезон: 16 выпусков из 16) [MP4|1280x720] торрент скачать бесплатно

    Опубликовал: tailtights3 | Дата: 24-10-2018, 11:18 | .torrent скачали: 6

    Человек-Невидимка (2017-2018) WEB-DLRip [H.264] (12 сезон: 16 выпусков из 16) [MP4|1280x720]Производство: ТВ3
    Жанр: ТВ-шоу
    Участники: Эвелина Блёданс, Виктор Колкутин, Борис Акимов, Мария Пугачева, Роман Фад, Аида, Дардо Кусто

    Описание

    Шоу, которого боятся звезды. Не может быть!, Я не позволю!, Прекратите! Не надо! – именно эти фразы чаще всего можно услышать на съемочной площадке одного из самых популярных проектов ТВ-3 Человек-невидимка. Каждую пятницу многомиллионная армия телезрителей узнает о звездах российского шоу-бизнеса самые горячие факты и откровенные подробности. В студию приходят гости, имена которых не сходят с первых полос таблоидов. Но после участия в шоу Человек-невидимка знаменитости становятся другими… Эксперты, применяя свои сверхспособности, заглядывают в будущее, рассказывают о прошлом, раскрывают секреты и пороки гостя. В распоряжении специалистов всего несколько личных предметов звезды и совсем немного времени, чтобы узнать – кто же прячется от них за кулисами. Самые громкие заявления и сенсационные признания в шоу Человек-невидимка.
    Продолжительность: ~ 00: 49: 00 серия
    Качество видео: WEB-DLRip
    Видео: AVC/H.264, 1280х720, ~3515 Kbps
    Аудио: AAC, 2 ch, 188 Kbps

    Общее
    Полное имя : M: Человек-НевидимкаЧеловек-Невидимка. Сезон 12 (2017-2018)Человек-Невидимка_12 сезон_01_Ирина Безрукова.mp4
    Формат : MPEG-4
    Профиль формата : Base Media
    Идентификатор кодека : isom (isom/iso2/avc1/mp41)
    Размер файла : 1, 26 Гбайт
    Продолжительность : 48 м. 35 с.
    Общий поток : 3709 Кбит/сек
    Программа кодирования : Lavf57.2.100
    Видео
    Идентификатор : 1
    Формат : AVC
    Формат/Информация : Advanced Video Codec
    Профиль формата : High@L3.1
    Настройки формата : CABAC/1 Ref Frames
    Параметр CABAC формата : Да
    Параметр RefFrames формата : 1 кадр
    Параметр GOP формата : M=1, N=12
    Идентификатор кодека : avc1
    Идентификатор кодека/Информация : Advanced Video Coding
    Продолжительность : 48 м. 35 с.
    Битрейт : 3515 Кбит/сек
    Ширина : 1280 пикселей
    Высота : 720 пикселей
    Соотношение сторон : 16: 9
    Режим частоты кадров : Переменный
    Частота кадров : 24, 451 кадра/сек
    Минимальная частота кадров : 0, 062 кадр/сек
    Максимальная частота кадров : 25, 000 кадров/сек
    Частота кадров в оригинале : 25, 000 кадров/сек
    Стандарт вещания : Component
    Цветовое пространство : YUV
    Субдискретизация насыщенности : 4: 2: 0
    Битовая глубина : 8 бит
    Тип развёртки : Прогрессивная
    Бит/(Пиксели*Кадры) : 0.156
    Размер потока : 1, 19 Гбайт (95%)
    Цветовой диапазон : Limited
    Аудио
    Идентификатор : 2
    Формат : AAC
    Формат/Информация : Advanced Audio Codec
    Профиль формата : LC
    Идентификатор кодека : mp4a-40-2
    Продолжительность : 48 м. 35 с.
    Вид битрейта : Постоянный
    Битрейт : 188 Кбит/сек
    Каналы : 2 канала
    Расположение каналов : Front: L R
    Частота : 44, 1 КГц
    Частота кадров : 43, 066 кадра/сек (1024 SPF)
    Метод сжатия : С потерями
    Размер потока : 65, 3 Мбайт (5%)
    Default : Да
    AlternateGroup/String : 1


    Человек-Невидимка (2017-2018) WEB-DLRip [H.264] (12 сезон: 16 выпусков из 16) [MP4|1280x720]
    Рейтинг →
     (голосов: 1, оценка 4/5, голосовать можно 1 раз )

    Другие торренты по теме:

  • Человек-Невидимка (2017) WEB-DLRip [H.264] (11 сезон: 14 выпусков из 14) [MP4|1280x720]


    • Комментарии (0):

      Информация

      Информация

        Посетители, находящиеся в группе Гости, не могут оставлять комментарии в данной новости.

        ↓ Меню




        ↓ Опрос

        Вы добавили сайт в закладки?
        Да
        Нет


        Top 10 за месяц (КПК и мобильные)