.
Авторизация | Регистрация
Хочешь лучшие торренты? Добавь свой email!
Добавить

Торрент скачать бесплатно

  • support: webmaster@btracker.club
» » Мистер Мерседес / Mr. Mercedes (2018) WEB-DLRip [H.264] (сезон 2, серии 1-8 из 10) LostFilm [MP4|1280x720] (обновляемая) торрент скачать бесплатно


    Мистер Мерседес / Mr. Mercedes (2018) WEB-DLRip [H.264] (сезон 2, серии 1-8 из 10) LostFilm [MP4|1280x720] (обновляемая) торрент скачать бесплатно

    Опубликовал: shell4secure | Дата: 22-10-2018, 10:27 | .torrent скачали: 7

    Мистер Мерседес / Mr. Mercedes (2018) WEB-DLRip [H.264] (сезон 2, серии 1-8 из 10) LostFilm [MP4|1280x720] (обновляемая)Производство: США/David E. Kelley Productions, Nomadicfilm, Temple Hill Entertainment
    Жанр: Триллер, Детектив
    Режиссер: Джек Бендер, Лора Иннес, Джон Дэвид Коулз
    Актеры: Брендан Глисон, Джаррель Джером, Гарри Тредэвэй, Холланд Тейлор, Брида Вул, Джастин Люпе, Джек Хьюстон, Роберт Стэнтон, Скотт Лоуренс, Келли Линч

    Описание

    Сериал Мистер Мерседес является экранизацией романа Стивена Кинга.
    Отставной полицейский Билл Ходжес возвращается к работе, так как ему не дает покоя нераскрытое дело — жестокое убийство шестнадцати человек. Брейди Хартфилд не может забыть пьянящее чувство, когда на угнанном мерседесе он врезался в группу ни в чём не повинных людей. Брейди не хочет останавливаться — он уже планирует новое преступление, на этот раз намного более масштабное. Биллу Ходжесу и его команде необходимо опередить его и спасти жизнь уже не десяткам, а сотням людей.

    Возраст: 18+ (зрителям, достигшим 18 лет. запрещено для детей)
    Продолжительность: ~ 00: 55: 00 серия
    Качество видео: WEB-DLRip
    Перевод: Профессиональный (многоголосый закадровый) -LostFilm
    Реклама: Присутствует заставка и логотип LostFilm
    Видео: AVC/H.264, 1280x720 (16: 9), ~4000 kbps
    Аудио: AAC, 2 ch, ~265 kbps - русский (многоголосый закадровый)
    General
    Complete name : S: Mr.Mercedes.S02.720p.WEB.LostFilmMr.Mercedes.S02E08.720p.WEB.rus.LostFilm.TV.mp4
    Format : MPEG-4
    Format profile : Base Media
    Codec ID : isom (isom)
    File size : 1.51 GiB
    Duration : 50 min 43 s
    Overall bit rate mode : Variable
    Overall bit rate : 4 266 kb/s
    Collection : Мистер Мерседес
    Season : 2
    Album : Мистер Мерседес, Сезон 2
    Album/Performer : Мистер Мерседес
    Part : 8
    Part/Position : 2
    Track name : Никто не упечет Брейди в Крестмор
    Track name/Position : 8
    Performer : Мистер Мерседес
    Genre : Drama
    ContentType : TV Show
    Recorded date : 2018
    Encoded date : UTC 2018-10-12 11: 43: 39
    Tagged date : UTC 2018-10-12 11: 43: 39
    Writing application : Yamb 2.1.0.0 http://yamb.unite-video.com/LostCoder
    Copyright : LostFilm.TV (c)
    Cover : Yes
    Comment : Детектив Билл Ходжес вот уже два года как на пенсии, но долгожданный отдых не приносит ему радости. Долгими унылыми вечерами он сидит перед телевизором с бутылкой скотча и размышляет о своей никчемной жизни.
    Part_ID : 208
    Video
    ID : 1
    Format : AVC
    Format/Info : Advanced Video Codec
    Format profile : High@L4.1
    Format settings : CABAC/4 Ref Frames
    Format settings, CABAC : Yes
    Format settings, ReFrames : 4 frames
    Codec ID : avc1
    Codec ID/Info : Advanced Video Coding
    Duration : 50 min 43 s
    Bit rate : 4 000 kb/s
    Maximum bit rate : 12.3 Mb/s
    Width : 1 280 pixels
    Height : 720 pixels
    Display aspect ratio : 16: 9
    Frame rate mode : Constant
    Frame rate : 23.976 (24000/1001) FPS
    Original frame rate : 23.976 (23976/1000) FPS
    Color space : YUV
    Chroma subsampling : 4: 2: 0
    Bit depth : 8 bits
    Scan type : Progressive
    Bits/(Pixel*Frame) : 0.181
    Stream size : 1.42 GiB (94%)
    Title : Imported with GPAC 0.4.6-DEV (internal rev. 5)
    Writing library : x264 core 112 r1834 a51816a
    Encoding settings : cabac=1/ref=4/deblock=1: -3: -2/analyse=0x3: 0x113/me=hex/subme=7/psy=1/psy_rd=1.00: 0.00/mixed_ref=1/me_range=16/chroma_me=1/trellis=1/8x8dct=1/cqm=0/deadzone=21, 11/fast_pskip=1/chroma_qp_offset=-2/threads=12/sliced_threads=0/nr=0/decimate=1/interlaced=0/constrained_intra=0/bframes=5/b_pyramid=2/b_adapt=1/b_bias=0/direct=1/weightb=1/open_gop=0/weightp=2/keyint=250/keyint_min=25/scenecut=40/intra_refresh=0/rc_lookahead=40/rc=2pass/mbtree=1/bitrate=4000/ratetol=1.0/qcomp=0.60/qpmin=0/qpmax=51/qpstep=4/cplxblur=20.0/qblur=0.5/vbv_maxrate=10000/vbv_bufsize=256000/ip_ratio=1.40/aq=1: 1.00/nal_hrd=none
    Encoded date : UTC 2018-10-11 09: 46: 45
    Tagged date : UTC 2018-10-12 11: 44: 06
    Codec configuration box : avcC
    Audio
    ID : 2
    Format : AAC LC
    Format/Info : Advanced Audio Codec Low Complexity
    Codec ID : mp4a-40-2
    Duration : 50 min 42 s
    Bit rate mode : Variable
    Bit rate : 265 kb/s
    Maximum bit rate : 340 kb/s
    Channel(s) : 2 channels
    Channel layout : L R
    Sampling rate : 48.0 kHz
    Frame rate : 46.875 FPS (1024 SPF)
    Compression mode : Lossy
    Stream size : 95.3 MiB (6%)
    Encoded date : UTC 2018-10-12 11: 44: 05
    Tagged date : UTC 2018-10-12 11: 44: 06


    Мистер Мерседес/Mr. Mercedes (2018) WEB-DLRip [H.264] (сезон 2, серии 1-8 из 10) LostFilm [MP4|1280x720] (обновляемая)
    Рейтинг →
     (голосов: 1, оценка 5/5, голосовать можно 1 раз )

    Другие торренты по теме:

  • Мистер Мерседес / Mr. Mercedes (2017) WEB-DL [H.264 / 720p-LQ] (сезон 1, серии 1-5 из 10) LostFilm (обновляемая)


    • Комментарии (0):

      Информация

      Информация

        Посетители, находящиеся в группе Гости, не могут оставлять комментарии в данной новости.

        ↓ Меню




        ↓ Опрос

        Вы добавили сайт в закладки?
        Да
        Нет


        Top 10 за месяц (КПК и мобильные)