.
Авторизация | Регистрация
Хочешь лучшие торренты? Добавь свой email!
Добавить

Торрент скачать бесплатно

  • support: webmaster@btracker.club
» » Мир Юрского периода 2 / Jurassic World: Fallen Kingdom (2018) WEB-DLRip [H.264] [MP4|1920x804] торрент скачать бесплатно


    Мир Юрского периода 2 / Jurassic World: Fallen Kingdom (2018) WEB-DLRip [H.264] [MP4|1920x804] торрент скачать бесплатно

    Опубликовал: fregat | Дата: 17-10-2018, 05:00 | .torrent скачали: 1

    Мир Юрского периода 2 / Jurassic World: Fallen Kingdom (2018) WEB-DLRip [H.264] [MP4|1920x804]Производство: США/Universal Pictures
    Жанр: Фантастика, Боевик, Приключения
    Режиссер: Хуан Антонио Байона
    Актеры: Крис Пратт, Брайс Даллас Ховард, Рейф Сполл, Джастис Смит, Даниэлла Пинеда, Джеймс Кромуэлл, Тоби Джонс, Тед Левайн, Джефф Голдблюм, Б.Д. Вонг

    Описание

    На острове Нублар, где не так давно располагался парк развлечений с динозаврами, правит бал дикая природа, но внезапно пробудившийся вулкан угрожает стереть динозавров с лица земли. Бывшая управляющая парком Клэр Диринг переквалифицировалась в защитницу исчезающих видов и пытается сделать всё, чтобы спасти доисторических животных. На неё выходит Илай Миллс — доверенное лицо миллиардера Бенждамина Локвуда, который много лет назад был соратником профессора Хаммонда. Миллс предлагает Клэр, знакомой с системой безопасности парка, поехать на остров и помочь ему поймать нескольких особей, чтобы вывести их на другой безопасный остров. Клэр даже удается уговорить своего бывшего парня, дрессировщика Оуэена, принять участие в спасательной миссии, но по прибытии в парк, выясняется, что у Миллса совсем другие цели.

    Возраст: 12+ (зрителям, достигшим 12 лет)
    Рейтинг MPAA: PG-13 (детям до 13 лет просмотр нежелателен)
    Дата мировой премьеры: 21 мая 2018
    Дата российской премьеры: 7 июня 2018
    Продолжительность: 02: 08: 18
    Качество видео: WEB-DLRip
    Перевод: Дублированный(iTunes)
    Субтитры: отсутствуют
    Видео: AVC/H.264, 1920x804, ~1800 Кбит/сек
    Аудио: AAC, 2 ch, 86, 3 Кбит/сек

    Общее
    Полное имя : Jurassic World Fallen Kingdom (2018).mp4
    Формат : MPEG-4
    Профиль формата : Base Media
    Идентификатор кодека : isom (isom/iso2/avc1/mp41)
    Размер файла : 1, 69 Гбайт
    Продолжительность : 2 ч. 8 м.
    Общий поток : 1889 Кбит/сек
    Видео
    Идентификатор : 1
    Формат : AVC
    Формат/Информация : Advanced Video Codec
    Профиль формата : High@L4.1
    Параметр CABAC формата : Да
    Параметр ReFrames формата : 4 кадра
    Идентификатор кодека : avc1
    Идентификатор кодека/Информация : Advanced Video Coding
    Продолжительность : 2 ч. 8 м.
    Битрейт : 1800 Кбит/сек
    Ширина : 1920 пикселей
    Высота : 804 пикселя
    Соотношение сторон : 2, 40: 1
    Режим частоты кадров : Постоянный
    Частота кадров : 23, 976 (24000/1001) кадра/сек
    Цветовое пространство : YUV
    Субдискретизация насыщенности : 4: 2: 0
    Битовая глубина : 8 бит
    Тип развёртки : Прогрессивная
    Бит/(Пиксели*Кадры) : 0.049
    Размер потока : 1, 61 Гбайт (95%)
    Библиотека кодирования : x264 core 148 r2705 3f5ed56
    Настройки программы : cabac=1/ref=3/deblock=1: 0: 0/analyse=0x3: 0x113/me=hex/subme=7/psy=1/psy_rd=1.00: 0.00/mixed_ref=1/me_range=16/chroma_me=1/trellis=1/8x8dct=1/cqm=0/deadzone=21, 11/fast_pskip=1/chroma_qp_offset=-2/threads=12/lookahead_threads=2/sliced_threads=0/nr=0/decimate=1/interlaced=0/bluray_compat=0/constrained_intra=0/bframes=3/b_pyramid=2/b_adapt=1/b_bias=0/direct=1/weightb=1/open_gop=0/weightp=2/keyint=240/keyint_min=23/scenecut=40/intra_refresh=0/rc_lookahead=40/rc=2pass/mbtree=1/bitrate=1800/ratetol=1.0/qcomp=0.60/qpmin=0/qpmax=69/qpstep=4/cplxblur=20.0/qblur=0.5/vbv_maxrate=3600/vbv_bufsize=14000/nal_hrd=none/filler=0/ip_ratio=1.40/aq=1: 1.00
    Язык : English
    Menus : 3
    Аудио
    Идентификатор : 2
    Формат : AAC
    Формат/Информация : Advanced Audio Codec
    Профиль формата : LC
    Идентификатор кодека : 40
    Продолжительность : 2 ч. 8 м.
    Duration_LastFrame : 21 мс.
    Вид битрейта : Постоянный
    Битрейт : 86, 3 Кбит/сек
    Каналы : 2 канала
    Расположение каналов : Front: L R
    Частота : 48, 0 КГц
    Частота кадров : 46, 875 кадров/сек (1024 spf)
    Метод сжатия : С потерями
    Размер потока : 79, 2 Мбайт (5%)
    Default : Да
    Alternate group : 1
    Menus : 3
    Меню #1
    Идентификатор : 3
    Идентификатор кодека : text
    Продолжительность : 2 ч. 8 м.
    Язык : English
    Menu For : 1, 2
    00: 00: 00.000 : 1
    00: 07: 14.225 : 2
    00: 12: 02.554 : 3
    00: 17: 18.745 : 4
    00: 21: 18.191 : 5
    00: 28: 50.810 : 6
    00: 35: 05.684 : 7
    00: 40: 52.571 : 8
    00: 46: 33.495 : 9
    00: 52: 05.993 : 10
    01: 01: 00.192 : 11
    01: 06: 51.251 : 12
    01: 11: 08.632 : 13
    01: 17: 22.088 : 14
    01: 26: 56.202 : 15
    01: 33: 02.484 : 16
    01: 42: 56.870 : 17
    01: 50: 02.545 : 18
    01: 54: 57.213 : 19
    01: 58: 38.975 : 20
    Вид битрейта : VBR
    Меню #2
    00: 00: 00.000 : 1
    00: 07: 14.225 : 2
    00: 12: 02.554 : 3
    00: 17: 18.745 : 4
    00: 21: 18.191 : 5
    00: 28: 50.810 : 6
    00: 35: 05.684 : 7
    00: 40: 52.571 : 8
    00: 46: 33.495 : 9
    00: 52: 05.993 : 10
    01: 01: 00.192 : 11
    01: 06: 51.251 : 12
    01: 11: 08.632 : 13
    01: 17: 22.088 : 14
    01: 26: 56.202 : 15
    01: 33: 02.484 : 16
    01: 42: 56.870 : 17
    01: 50: 02.545 : 18
    01: 54: 57.213 : 19
    01: 58: 38.975 : 20
    Скриншоты:

    Все одноименные релизы в Клубе
    Время раздачи: c 23.30 до 08.30 по возможности (до появления первых 3-5 скачавших)


    Мир Юрского периода 2/Jurassic World: Fallen Kingdom (2018) WEB-DLRip [H.264] [MP4|1920x804]
    Рейтинг →
     (голосов: 1, оценка 4/5, голосовать можно 1 раз )

    Другие торренты по теме:

  • Ловушка Юрского периода / Jurassic City (2014) DVDRip [VO]
  • Мир Юрского периода / Jurassic World (2015) WEBRip [1080р] [Трейлер №2] скачать через торрент бесплатно
  • Парк Юрского периода / Jurassic Park (1993-2001) BDRip [H.264 / 1080p] [Трилогия] скачать через торрент бесплатно
  • Парк Юрского периода / Jurassic Park (1993-2001) BDRip [H.264 / 720p] [Трилогия] скачать через торрент бесплатно
  • Michael Giacchino - Мир Юрского периода / Jurassic World (Original Motion Picture Soundtrack) (2015) [AAC|WEB-DL|256 кб / с]<Soundtrack> скачать через торрент бесплатно
  • Мир Юрского периода / Jurassic World (2015) CamRip скачать через торрент бесплатно
  • Мир Юрского периода / Jurassic World (2015) CamRip скачать через торрент бесплатно
  • Мир Юрского периода / Jurassic World (2015) TS скачать через торрент бесплатно


    • Комментарии (0):

      Информация

      Информация

        Посетители, находящиеся в группе Гости, не могут оставлять комментарии в данной новости.

        ↓ Меню




        ↓ Опрос

        Вы добавили сайт в закладки?
        Да
        Нет


        Top 10 за месяц (КПК и мобильные)