.
Авторизация | Регистрация
Хочешь лучшие торренты? Добавь свой email!
Добавить

Торрент скачать бесплатно

  • support: webmaster@btracker.club
» » Смерть Супермена / The Death of Superman (2018) WEB-DLRip [H.264] [MP4|1920x1078] торрент скачать бесплатно


    Смерть Супермена / The Death of Superman (2018) WEB-DLRip [H.264] [MP4|1920x1078] торрент скачать бесплатно

    Опубликовал: fregat | Дата: 17-10-2018, 05:00 | .torrent скачали: 0

    Смерть Супермена / The Death of Superman (2018) WEB-DLRip [H.264] [MP4|1920x1078]Производство: США | Warner Bros. Animation, DC Entertainment
    Жанр: Анимация, Боевик, Фантастика
    Режиссер: Jake Castorena, Сэм Лью
    Актеры: Джерри О’Коннелл, Ребекка Ромейн, Рэйн Уилсон, Розарио Доусон, Нэйтан Филлион, Кристофер Горам, Мэтт Лантер, Шемар Мур, Ньямби Ньямби, Джейсон О’Мара

    Описание

    Кларк Кент подумывает о том, чтобы раскрыть возлюбленной Лоис Лэйн свой самый большой секрет — что он является Суперменом. В это же время на Землю прибывает страшное чудовище Думсдэй, обладающее невероятной силой и злобой. Все супергерои в составе Лиги справедливости с трудом сдерживают монстра, поэтому Супермену придётся отложить свои личные дела и постараться помочь товарищам победить врага.

    Рейтинг MPAA: PG-13 (детям до 13 лет просмотр нежелателен)
    Дата мировой премьеры: 24 июля 2018
    Качество видео: WEB-DLRip
    Перевод: Дублированный
    Субтитры: отсутствуют
    Реклама: присутствует текстовая и видео реклама
    Видео: AVC/H.264, 1920x1078, ~2429 Кбит/сек
    Аудио: AAC, 2 ch, 128 Кбит/сек

    Общее
    Полное имя : The Death of Superman (2018).mp4
    Формат : MPEG-4
    Профиль формата : Base Media
    Идентификатор кодека : isom (isom)
    Размер файла : 1, 46 Гбайт
    Продолжительность : 1 ч. 21 м.
    Режим общего битрейта : Переменный
    Общий поток : 2561 Кбит/сек
    Видео
    Идентификатор : 2
    Формат : AVC
    Формат/Информация : Advanced Video Codec
    Профиль формата : Main@L4
    Параметр CABAC формата : Да
    Параметр ReFrames формата : 4 кадра
    Идентификатор кодека : avc1
    Идентификатор кодека/Информация : Advanced Video Coding
    Продолжительность : 1 ч. 21 м.
    Битрейт : 2429 Кбит/сек
    Максимальный битрейт : 9191 Кбит/сек
    Ширина : 1920 пикселей
    Высота : 1078 пикселей
    Соотношение сторон : 16: 9
    Режим частоты кадров : Постоянный
    Частота кадров : 23, 976 (24000/1001) кадра/сек
    Цветовое пространство : YUV
    Субдискретизация насыщенности : 4: 2: 0
    Битовая глубина : 8 бит
    Тип развёртки : Прогрессивная
    Бит/(Пиксели*Кадры) : 0.049
    Размер потока : 1, 39 Гбайт (95%)
    Библиотека кодирования : x264 core 132
    Настройки программы : cabac=1/ref=1/deblock=1: 0: 0/analyse=0x1: 0x1/me=dia/subme=1/psy=1/psy_rd=1.00: 0.00/mixed_ref=0/me_range=16/chroma_me=1/trellis=0/8x8dct=0/cqm=0/deadzone=21, 11/fast_pskip=1/chroma_qp_offset=0/threads=12/lookahead_threads=2/sliced_threads=0/nr=0/decimate=1/interlaced=0/bluray_compat=0/constrained_intra=0/bframes=3/b_pyramid=2/b_adapt=1/b_bias=0/direct=1/weightb=1/open_gop=0/weightp=1/keyint=24/keyint_min=2/scenecut=40/intra_refresh=0/rc=crf/mbtree=0/crf=27.0/qcomp=0.60/qpmin=0/qpmax=69/qpstep=4/ip_ratio=1.40/pb_ratio=1.30/aq=1: 1.00
    Аудио
    Идентификатор : 1
    Формат : AAC
    Формат/Информация : Advanced Audio Codec
    Профиль формата : LC
    Идентификатор кодека : 40
    Продолжительность : 1 ч. 21 м.
    Вид битрейта : Переменный
    Битрейт : 128 Кбит/сек
    Максимальный битрейт : 144 Кбит/сек
    Каналы : 2 канала
    Расположение каналов : Front: L R
    Частота : 48, 0 КГц
    Частота кадров : 46, 875 кадров/сек (1024 spf)
    Метод сжатия : С потерями
    Размер потока : 75, 0 Мбайт (5%)
    Скриншоты:

    Все одноименные релизы в Клубе
    Время раздачи: с 23.30 до 08.30 по возможности (до появления первых 3-5 скачавших)


    Смерть Супермена/The Death of Superman (2018) WEB-DLRip [H.264] [MP4|1920x1078]
    Рейтинг →
     (голосов: 1, оценка 4/5, голосовать можно 1 раз )

    Другие торренты по теме:

  • Смерть Супермена / The Death of Superman (2018) BDRip [H.264 / 1080p-LQ] [MVO]
  • Смерть Супермена / The Death of Superman (2018) UHD BDRemux [H.265 / 2160p] [4K, HDR, 10-bit]


    • Комментарии (0):

      Информация

      Информация

        Посетители, находящиеся в группе Гости, не могут оставлять комментарии в данной новости.

        ↓ Меню




        ↓ Опрос

        Вы добавили сайт в закладки?
        Да
        Нет


        Top 10 за месяц (КПК и мобильные)