.
Авторизация | Регистрация
Хочешь лучшие торренты? Добавь свой email!
Добавить

Торрент скачать бесплатно

  • support: webmaster@btracker.club
» » Коммандос / Commando (1985) BDRip [Режиссерская версия] [H.264] [MP4|1280x720] [VO] торрент скачать бесплатно


    Коммандос / Commando (1985) BDRip [Режиссерская версия] [H.264] [MP4|1280x720] [VO] торрент скачать бесплатно

    Опубликовал: fregat | Дата: 16-10-2018, 05:00 | .torrent скачали: 0

    Коммандос / Commando (1985) BDRip [Режиссерская версия] [H.264] [MP4|1280x720] [VO]Производство: США/SLM Production Group, Silver Pictures, Twentieth Century Fox Film Corporation
    Жанр: Боевик, Триллер, Приключения
    Режиссер: Марк Л. Лестер
    Актеры: Арнольд Шварценеггер, Рей Дон Чон, Дэн Хедайя, Вернон Уэллс, Джеймс Олсон, Дэвид Патрик Келли, Алисса Милано, Билл Дьюк, Дрю Снайдер, Шарон Виатт, Майкл Делано, Боб Майнор, Майкл Адамс, Гэри Сервантес

    Описание

    Бывший командир спецотряда, полковник в отставке Джон Матрикс, живёт в большом доме вдали от города вместе со своей 11-летней дочерью Дженни, пока однажды её не похищает бывший подчинённый Джона…

    Возраст: 16+ (зрителям, достигшим 16 лет)
    Рейтинг MPAA: R (лицам до 17 лет обязательно присутствие взрослого)
    Дата мировой премьеры: 4 октября 1985
    Дата выхода DVD/Blu-ray релиза: 14 февраля 2006, Гемини-Фильм
    Продолжительность: 01: 31: 57
    Качество видео: BDRip 720p (источник: BD-Remux)
    Перевод: Одноголосый закадровыйVHSник
    Автор перевода: Борис Страхов
    Реклама: В начале имеется 8-секундная заставка с логотипом переводчика
    Субтитры: нет
    Видео: AVC/H.264, 1280x720, ~4988 Kbps
    Аудио: AAC, 2 ch, 192 Kbps

    General
    Complete name : D: VHSникКоммандо.mp4
    Format : MPEG-4
    Format profile : Base Media/Version 2
    Codec ID : mp42 (isom/mp42)
    File size : 3.33 GiB
    Duration : 1 h 31 min
    Overall bit rate mode : Variable
    Overall bit rate : 5 180 kb/s
    Encoded date : UTC 2018-09-14 14: 39: 09
    Tagged date : UTC 2018-09-14 14: 39: 09
    Video
    ID : 1
    Format : AVC
    Format/Info : Advanced Video Codec
    Format profile : High@L3.1
    Format settings, CABAC : Yes
    Format settings, ReFrames : 1 frame
    Format settings, GOP : M=1, N=30
    Codec ID : avc1
    Codec ID/Info : Advanced Video Coding
    Duration : 1 h 31 min
    Source duration : 1 h 31 min
    Bit rate : 4 988 kb/s
    Width : 1 280 pixels
    Height : 720 pixels
    Display aspect ratio : 16: 9
    Frame rate mode : Constant
    Frame rate : 23.976 (24000/1001) FPS
    Color space : YUV
    Chroma subsampling : 4: 2: 0
    Bit depth : 8 bits
    Scan type : Progressive
    Bits/(Pixel*Frame) : 0.226
    Stream size : 3.20 GiB (96%)
    Source stream size : 3.20 GiB (96%)
    Language : English
    Encoded date : UTC 2018-09-14 14: 39: 10
    Tagged date : UTC 2018-09-14 14: 39: 10
    Audio
    ID : 2
    Format : AAC
    Format/Info : Advanced Audio Codec
    Format profile : LC
    Codec ID : 40
    Duration : 1 h 31 min
    Bit rate mode : Variable
    Bit rate : 192 kb/s
    Maximum bit rate : 538 kb/s
    Channel(s) : 2 channels
    Channel positions : Front: L R
    Sampling rate : 48.0 kHz
    Frame rate : 46.875 FPS (1024 spf)
    Compression mode : Lossy
    Stream size : 125 MiB (4%)
    Language : English
    Encoded date : UTC 2018-09-14 14: 39: 10
    Tagged date : UTC 2018-09-14 14: 39: 10


    Коммандос/Commando (1985) BDRip [Режиссерская версия] [H.264] [MP4|1280x720] [VO]
    Рейтинг →
     (голосов: 1, оценка 5/5, голосовать можно 1 раз )

    Другие торренты по теме:

  • Коммандос / Commando (1985) BDRip [H.264]
  • Коммандос / Commando (1985) BDRip [1080p] [hand made 60 FPS] скачать через торрент бесплатно
  • Коммандос / Commando (1985) BDRip [H.264] скачать через торрент бесплатно
  • Коммандос / Commando (1985) BDRip [H.264] [Directors Cut]
  • Коммандос / Commando (1985) BDRip [H.264] [Directors Cut] [AVO]
  • Коммандос / Commando (1985) BDRip [H.264] [Directors Cut]
  • Коммандос / Commando (1985) BDRip [H.265 / 1080p] [Directors Cut]


    • Комментарии (0):

      Информация

      Информация

        Посетители, находящиеся в группе Гости, не могут оставлять комментарии в данной новости.

        ↓ Меню




        ↓ Опрос

        Вы добавили сайт в закладки?
        Да
        Нет


        Top 10 за месяц (КПК и мобильные)