.
Авторизация | Регистрация
Хочешь лучшие торренты? Добавь свой email!
Добавить

Торрент скачать бесплатно

  • support: webmaster@btracker.club
» » Тёмные отражения / The Darkest Minds (2018) WEB-DLRip [H.264] [MP4|1280x536] торрент скачать бесплатно


    Тёмные отражения / The Darkest Minds (2018) WEB-DLRip [H.264] [MP4|1280x536] торрент скачать бесплатно

    Опубликовал: fregat | Дата: 15-10-2018, 05:00 | .torrent скачали: 2

    Тёмные отражения / The Darkest Minds (2018) WEB-DLRip [H.264] [MP4|1280x536]Производство: США, 21 Laps Entertainment
    Жанр: Фантастика, Триллер
    Режиссер: Дженнифер Ю
    Актеры: Мэнди Мур, Амандла Стенберг, Гвендолин Кристи, Брэдли Уитфорд, Харрис Дикинсон, Мия Чех, Карсон Холмс, Уоллес Лэнгэм, Марк О’Брайэн, Патрик Гибсон

    Описание

    После того, как неизвестная болезнь убивает 98% американских детей, 2% выживших, у которых обнаруживаются суперспособности, отправляют в специальные лагеря. 16-летняя девушка сбегает из такого лагеря и присоединяется к группе других подростков, которые скрываются от правительства.

    Возраст: 12+ (зрителям, достигшим 12 лет)
    Рейтинг MPAA: PG-13 (детям до 13 лет просмотр нежелателен)
    Дата мировой премьеры: 1 августа 2018
    Дата российской премьеры: 6 сентября 2018, Двадцатый Век Фокс СНГ
    Дата выхода DVD/Blu-ray релиза: 12 октября 2018, Двадцатый Век Фокс СНГ
    Продолжительность: 01: 44: 35
    Качество видео: WEB-DLRip
    Перевод: Дублированный(iTunes)
    Субтитры: отсутствуют
    Видео: AVC/H.264, 1280x536, ~1024 Кбит/сек
    Аудио: AAC, 2 ch, 128 Кбит/сек

    Общее
    Полное имя : The_Darkest_Minds_(2018).mp4
    Формат : MPEG-4
    Профиль формата : Base Media
    Идентификатор кодека : isom (isom/iso2/avc1/mp41)
    Размер файла : 868 Мбайт
    Продолжительность : 1 ч. 44 м.
    Общий поток : 1160 Кбит/сек
    Название фильма : The Darkest Minds (2018).mp4
    Дата записи : 0
    Программа кодирования :
    Видео
    Идентификатор : 1
    Формат : AVC
    Формат/Информация : Advanced Video Codec
    Профиль формата : High@L3.1
    Параметр CABAC формата : Да
    Параметр ReFrames формата : 4 кадра
    Идентификатор кодека : avc1
    Идентификатор кодека/Информация : Advanced Video Coding
    Продолжительность : 1 ч. 44 м.
    Битрейт : 1024 Кбит/сек
    Ширина : 1280 пикселей
    Высота : 536 пикселей
    Соотношение сторон : 2, 40: 1
    Режим частоты кадров : Переменный
    Частота кадров : 23, 976 кадра/сек
    Минимальная частота кадров : 12, 000 кадров/сек
    Максимальная частота кадров : 24, 000 кадра/сек
    Цветовое пространство : YUV
    Субдискретизация насыщенности : 4: 2: 0
    Битовая глубина : 8 бит
    Тип развёртки : Прогрессивная
    Бит/(Пиксели*Кадры) : 0.062
    Размер потока : 768 Мбайт (89%)
    Библиотека кодирования : x264 core 146
    Настройки программы : cabac=1/ref=2/deblock=1: 0: 0/analyse=0x3: 0x113/me=hex/subme=6/psy=1/psy_rd=1.00: 0.00/mixed_ref=1/me_range=16/chroma_me=1/trellis=1/8x8dct=1/cqm=0/deadzone=21, 11/fast_pskip=1/chroma_qp_offset=-2/threads=48/lookahead_threads=4/sliced_threads=0/nr=0/decimate=1/interlaced=0/bluray_compat=0/constrained_intra=0/bframes=3/b_pyramid=2/b_adapt=1/b_bias=0/direct=1/weightb=1/open_gop=0/weightp=1/keyint=50/keyint_min=5/scenecut=40/intra_refresh=0/rc_lookahead=30/rc=2pass/mbtree=1/bitrate=1024/ratetol=97.5/qcomp=0.60/qpmin=0/qpmax=69/qpstep=4/cplxblur=20.0/qblur=0.5/ip_ratio=1.40/aq=1: 1.00
    Аудио
    Идентификатор : 2
    Формат : AAC
    Формат/Информация : Advanced Audio Codec
    Профиль формата : LC
    Идентификатор кодека : 40
    Продолжительность : 1 ч. 43 м.
    Duration_LastFrame : -18 мс.
    Вид битрейта : Постоянный
    Битрейт : 128 Кбит/сек
    Каналы : 2 канала
    Расположение каналов : Front: L R
    Частота : 44, 1 КГц
    Частота кадров : 43, 066 кадра/сек (1024 spf)
    Метод сжатия : С потерями
    Размер потока : 95, 0 Мбайт (11%)
    Default : Да
    Alternate group : 1
    Скриншоты:

    Все одноименные релизы в Клубе
    Время раздачи: с 23: 30 до 8: 30 по возможности (до появления первых 3-5 скачавших)


    Тёмные отражения/The Darkest Minds (2018) WEB-DLRip [H.264] [MP4|1280x536]
    Рейтинг →
     (голосов: 1, оценка 3/5, голосовать можно 1 раз )

    Другие торренты по теме:

  • Тёмные отражения / The Darkest Minds (2018) TS [H.264 / 720p-LQ] [AD]
  • Тёмные отражения / The Darkest Minds (2018) WEB-DLRip [H.264 / 1080p-LQ] [AD]
  • Тёмные отражения / The Darkest Minds (2018) WEB-DLRip [Line, AD]
  • Тёмные отражения / The Darkest Minds (2018) WEB-DL [H.264 / 720p-LQ]
  • Тёмные отражения / The Darkest Minds (2018) WEB-DLRip
  • Тёмные отражения / The Darkest Minds (2018) WEB-DL [H.264 / 1080p]
  • Тёмные отражения / The Darkest Minds (2018) WEB-DL [1080p] ATV
  • Тёмные отражения / The Darkest Minds (2018) BDRip [H.264 / 720p]


    • Комментарии (0):

      Информация

      Информация

        Посетители, находящиеся в группе Гости, не могут оставлять комментарии в данной новости.

        ↓ Меню




        ↓ Опрос

        Вы добавили сайт в закладки?
        Да
        Нет


        Top 10 за месяц (КПК и мобильные)