.
Авторизация | Регистрация
Хочешь лучшие торренты? Добавь свой email!
Добавить

Торрент скачать бесплатно

  • support: webmaster@btracker.club
» » Кобра Кай / Cobra Kai (2018) WEB-DLRip [H.264] (сезон 1, серии 1-5 из 10) VHSник [MP4|1280x720] [VO] торрент скачать бесплатно


    Кобра Кай / Cobra Kai (2018) WEB-DLRip [H.264] (сезон 1, серии 1-5 из 10) VHSник [MP4|1280x720] [VO] торрент скачать бесплатно

    Опубликовал: fregat | Дата: 15-10-2018, 05:00 | .torrent скачали: 0

    Кобра Кай / Cobra Kai (2018) WEB-DLRip [H.264] (сезон 1, серии 1-5 из 10) VHSник [MP4|1280x720] [VO]Производство: США/Hurwitz Schlossberg Productions, Overbrook Entertainment, Sony Pictures Television
    Жанр: боевик, драма, комедия, семейный
    Режиссер: Джон Харвитц, Хейден Шлоссберг, Дженнифер Челотта
    Актеры: Ральф Маччио, Уильям Забка, Кортни Хенгелер, Холо Маридуэньо, Тэннер Бьюкэнэн, Мэри Мэтилин Маусер, Джейкоб Бертран, Джанни Десенцо и др.

    Описание

    В прошлом хулиган, а ныне разорившийся неудачник, Джонни Лоуренс считает, что единственный его шанс вернуться к нормальной жизни — заново открыть печально известную школу карате Кобра Кай. Попытка наладить свои дела сводит Джонни с Дэниелом ЛаРуссо — успешным мужчиной, который изо всех сил старается сохранять жизненную гармонию, которой когда-то учил его мистер Мияги. Встретившись вновь, Дэнни и Джонни пытаются избавиться от демонов прошлого и проблем настоящего единственным известным им способом — с помощью карате.

    Дата мировой премьеры: 02 мая 2018
    Продолжительность: ~ 00: 28: 00 серия
    Качество видео: WEB-DLRip
    Перевод: Любительский (одноголосый закадровый) VHSник
    Субтитры: Отсутствуют
    Видео: AVC/H.264, 1280x720, ~2900 kbps
    Аудио: AAC, 2 ch., ~192 kbps

    General
    Complete name : D: Кобра Кай - сезон 1 - VHSникКобра Кай - сезон 1, серия 2 - VHSник.mp4
    Format : MPEG-4
    Format profile : Base Media/Version 2
    Codec ID : mp42 (isom/mp42)
    File size : 586 MiB
    Duration : 25 min 50 s
    Overall bit rate mode : Variable
    Overall bit rate : 3 168 kb/s
    Encoded date : UTC 2018-09-23 14: 48: 59
    Tagged date : UTC 2018-09-23 14: 48: 59
    Video
    ID : 1
    Format : AVC
    Format/Info : Advanced Video Codec
    Format profile : High@L3.1
    Format settings, CABAC : Yes
    Format settings, ReFrames : 1 frame
    Format settings, GOP : M=1, N=30
    Codec ID : avc1
    Codec ID/Info : Advanced Video Coding
    Duration : 25 min 50 s
    Bit rate : 2 976 kb/s
    Width : 1 280 pixels
    Height : 720 pixels
    Display aspect ratio : 16: 9
    Frame rate mode : Constant
    Frame rate : 23.976 (24000/1001) FPS
    Color space : YUV
    Chroma subsampling : 4: 2: 0
    Bit depth : 8 bits
    Scan type : Progressive
    Bits/(Pixel*Frame) : 0.135
    Stream size : 550 MiB (94%)
    Language : English
    Encoded date : UTC 2018-09-23 14: 49: 00
    Tagged date : UTC 2018-09-23 14: 49: 00
    Audio
    ID : 2
    Format : AAC
    Format/Info : Advanced Audio Codec
    Format profile : LC
    Codec ID : 40
    Duration : 25 min 50 s
    Bit rate mode : Variable
    Bit rate : 192 kb/s
    Maximum bit rate : 538 kb/s
    Channel(s) : 2 channels
    Channel positions : Front: L R
    Sampling rate : 48.0 kHz
    Frame rate : 46.875 FPS (1024 spf)
    Compression mode : Lossy
    Stream size : 35.0 MiB (6%)
    Language : English
    Encoded date : UTC 2018-09-23 14: 49: 00
    Tagged date : UTC 2018-09-23 14: 49: 00


    Кобра Кай/Cobra Kai (2018) WEB-DLRip [H.264] (сезон 1, серии 1-5 из 10) VHSник [MP4|1280x720] [VO]
    Рейтинг →
     (голосов: 1, оценка 5/5, голосовать можно 1 раз )

    Другие торренты по теме:

  • Кобра / Cobra (1986) BDRip [H.264 / 1080p-LQ] [Hi10P] скачать через торрент бесплатно
  • Кобра / Cobra (1986) BDRip [H.264 / 720p-LQ] [Hi10P]
  • Женщина-кобра / Cobra Woman (1944) DVDRip [H.264] [VO]
  • Кобра / Cobra (1986) BDRip [H.264] скачать через торрент бесплатно
  • Кобра / Cobra (1986) BDRip [H.265 / 1080p-LQ]
  • Кобра / Cobra (1986) BDRip [H.264 / 1080p]
  • Кобра / Cobra (1986) BDRip [H.264 / 1080p-LQ]
  • Королевская кобра / King Cobra (2016) BDRip [H.264 / 720p] [EN]


    • Комментарии (0):

      Информация

      Информация

        Посетители, находящиеся в группе Гости, не могут оставлять комментарии в данной новости.

        ↓ Меню




        ↓ Опрос

        Вы добавили сайт в закладки?
        Да
        Нет


        Top 10 за месяц (КПК и мобильные)