.
Авторизация | Регистрация
Хочешь лучшие торренты? Добавь свой email!
Добавить

Торрент скачать бесплатно

  • support: webmaster@btracker.club
» » Заговор / Raazi (2018) WEBRip [H.264] [MP4|640x360] торрент скачать бесплатно


    Заговор / Raazi (2018) WEBRip [H.264] [MP4|640x360] торрент скачать бесплатно

    Опубликовал: fregat | Дата: 14-10-2018, 05:00 | .torrent скачали: 0

    Заговор / Raazi (2018) WEBRip [H.264] [MP4|640x360]Производство: Индия, DHARMA PRODUCTIONS
    Жанр: Боевик, Триллер, Криминал
    Режиссер: Мегна Гульзар
    Актеры: Алиа Бхатт, Вики Каушал, Раджит Капур, Шишир Шарма, Ашват Бхатт, Джайдип Ахлават, Ариф Закария, Амрута Кханвилкар, Канвалджит Сингх

    Описание

    1971 год, индо-пакистанский военный конфликт. Женщина из Кашмира вышла замуж за пакистанского армейского офицера армии с целью получения доступа к бесценной информации о планах пакистанской армии и передаче ее индийской разведке. Она разработала уникальные способы приблизиться к высшему руководству в Пакистане. Практически в одиночку сорвала военные планы Пакистана за счет личного мужества, остроумия и решительности, сохранив жизни десятков индийских солдат.

    Дата мировой премьеры: 10 мая 2018
    Продолжительность: 02: 18: 48
    Качество видео: WEBRip
    Перевод: Многоголосый закадровый
    Автор перевода: HoneyHaseena
    Субтитры: Нет
    Видео: AVC/H.264, 640x360, ~600 Kbps
    Аудио: AAC, 2 ch, 128 Kbps
    Озвучка: Маргарита Сахно, Станислав Черсков, Кирилл Патрино и Константин Федосеев. Перевод и редакция: HoneyHaseena. Звукорежиссёр: Михаил Шорыгин. Огромное спасибо!!! Фильм переведён и озвучен по заказу Pol Pot специально для группы ВК: ●♥•°•ღ ღ•°•♥●๑HONEYHASEENA ●♥•°•ღ ღ•°•♥●๑

    General
    Complete name : D: ИндияЗаговорЗаговор_Raazi_2018.mp4
    Format : MPEG-4
    Format profile : Base Media/Version 2
    Codec ID : mp42 (isom/mp42/3gp5)
    File size : 723 MiB
    Duration : 2 h 18 min
    Overall bit rate mode : Variable
    Overall bit rate : 728 kb/s
    Encoded date : UTC 2018-09-02 04: 58: 12
    Tagged date : UTC 2018-09-02 04: 58: 12
    Video
    ID : 201
    Format : AVC
    Format/Info : Advanced Video Codec
    Format profile : High@L3
    Format settings : CABAC/4 Ref Frames
    Format settings, CABAC : Yes
    Format settings, ReFrames : 4 frames
    Codec ID : avc1
    Codec ID/Info : Advanced Video Coding
    Duration : 2 h 18 min
    Bit rate : 600 kb/s
    Maximum bit rate : 5 010 kb/s
    Width : 640 pixels
    Height : 360 pixels
    Display aspect ratio : 16: 9
    Frame rate mode : Constant
    Frame rate : 24.000 FPS
    Color space : YUV
    Chroma subsampling : 4: 2: 0
    Bit depth : 8 bits
    Scan type : Progressive
    Bits/(Pixel*Frame) : 0.109
    Stream size : 592 MiB (82%)
    Writing library : x264 core 142
    Encoding settings : cabac=1/ref=3/deblock=1: 0: 0/analyse=0x3: 0x113/me=hex/subme=7/psy=1/psy_rd=1.00: 0.00/mixed_ref=1/me_range=16/chroma_me=1/trellis=1/8x8dct=1/cqm=0/deadzone=21, 11/fast_pskip=1/chroma_qp_offset=-2/threads=15/lookahead_threads=2/sliced_threads=0/nr=0/decimate=1/interlaced=0/bluray_compat=0/constrained_intra=0/bframes=3/b_pyramid=2/b_adapt=1/b_bias=0/direct=1/weightb=1/open_gop=0/weightp=2/keyint=250/keyint_min=24/scenecut=40/intra_refresh=0/rc_lookahead=40/rc=abr/mbtree=1/bitrate=600/ratetol=1.0/qcomp=0.60/qpmin=0/qpmax=28/qpstep=4/ip_ratio=1.40/aq=1: 1.00
    Tagged date : UTC 2018-09-02 04: 58: 18
    Codec configuration box : avcC
    Audio
    ID : 101
    Format : AAC
    Format/Info : Advanced Audio Codec
    Format profile : LC
    Codec ID : mp4a-40-2
    Duration : 2 h 18 min
    Source duration : 2 h 18 min
    Bit rate mode : Variable
    Bit rate : 128 kb/s
    Maximum bit rate : 139 kb/s
    Channel(s) : 2 channels
    Channel positions : Front: L R
    Sampling rate : 44.1 kHz
    Frame rate : 43.066 FPS (1024 SPF)
    Compression mode : Lossy
    Stream size : 127 MiB (18%)
    Source stream size : 127 MiB (18%)
    Default : Yes
    Alternate group : 1
    Tagged date : UTC 2018-09-02 04: 58: 18
    Other #1
    ID : 2
    Type : Object description
    Format : System
    Codec ID : mp4s-01
    Duration : 1 s 0 ms
    Encoded date : UTC 2018-09-02 04: 58: 18
    Tagged date : UTC 2018-09-02 04: 58: 18
    Other #2
    ID : 1
    Type : Scene description
    Format : System Core
    Codec ID : mp4s-02
    Duration : 1 s 0 ms
    Encoded date : UTC 2018-09-02 04: 58: 18
    Tagged date : UTC 2018-09-02 04: 58: 18
    Скриншоты:


    Все одноименные релизы в Клубе
    Время раздачи: 24/7 (круглосуточно) (до появления первых 3-5 скачавших)


    Заговор/Raazi (2018) WEBRip [H.264] [MP4|640x360]
    Рейтинг →
     (голосов: 1, оценка 4/5, голосовать можно 1 раз )

    Другие торренты по теме:

  • Sekai Seifuku: Bouryaku no Zvezda / World Conquest Zvezda Plot / Покорение мира: Заговор «Звезды» [2014, TV, 12 из 12 + 1] BDrip 1080p raw скачать через торрент бесплатно
  • Заговор против женщин (2014) HDTV [1080i] скачать через торрент бесплатно
  • Теория заговора. Заговор торговых сетей (2015.02.21) SATRip
  • Война без правил. Заговор корпораций (2015) SATRip скачать через торрент бесплатно
  • Теория заговора. Заговор против водителей (2015.09.20) SATRip скачать через торрент бесплатно
  • В теме. Антикитайский заговор (2015) SATRip скачать через торрент бесплатно
  • Е. В. Добровольская, Ю. М. Макаров | 1825-й год. Заговор (1990) [CBR] скачать через торрент бесплатно
  • Кристофер Уильям Гортнер | Заговор Тюдоров (2015) [FB2] скачать через торрент бесплатно


    • Комментарии (0):

      Информация

      Информация

        Посетители, находящиеся в группе Гости, не могут оставлять комментарии в данной новости.

        ↓ Меню




        ↓ Опрос

        Вы добавили сайт в закладки?
        Да
        Нет


        Top 10 за месяц (КПК и мобильные)