.
Авторизация | Регистрация
Хочешь лучшие торренты? Добавь свой email!
Добавить

Торрент скачать бесплатно

  • support: webmaster@btracker.club
» » Трое в лодке, не считая собаки (1979) WEB-DL [H.264] [MP4|1920x1080] торрент скачать бесплатно


    Трое в лодке, не считая собаки (1979) WEB-DL [H.264] [MP4|1920x1080] торрент скачать бесплатно

    Опубликовал: fregat | Дата: 6-10-2018, 05:00 | .torrent скачали: 1

    Трое в лодке, не считая собаки (1979) WEB-DL [H.264] [MP4|1920x1080]Производство: СССР/Ленфильм
    Жанр: Мюзикл, комедия
    Режиссер: Наум Бирман
    Актеры: Андрей Миронов, Александр Ширвиндт, Михаил Державин, Лариса Голубкина, Алина Покровская, Ирина Мазуркевич, Георгий Штиль, Зиновий Гердт, Татьяна Пельтцер, Ольга Волкова

    Описание

    По одноименной повести Джерома К. Джерома. Однажды трое приятелей-холостяков, лондонских жителей, решили сделаться ближе к природе и отправиться в лодочное путешествие по Темзе, прихватив с собой собачку Монморенси…

    Возраст: 0+ (для любой зрительской аудитории)
    Релиз от: Алехаndr
    Продолжительность: 02: 07: 01
    Качество видео: WEB-DL
    Субтитры: Отсутствуют
    Видео: AVC/H.264, 1920x1080 (16: 9), ~2180 Kbps
    Аудио: AAC, 2 ch, 126 Kbps

    Общее
    Полное имя : G: Трое в лодке, не считая собаки (1979).mp4
    Формат : MPEG-4
    Профиль формата : Base Media
    Идентификатор кодека : isom (isom/iso2/avc1/mp41)
    Размер файла : 2, 05 Гбайт
    Продолжительность : 2 ч. 7 м.
    Общий поток : 2311 Кбит/сек
    Программа кодирования : Lavf56.40.101
    Видео
    Идентификатор : 1
    Формат : AVC
    Формат/Информация : Advanced Video Codec
    Профиль формата : High@L4
    Настройки формата : CABAC/3 Ref Frames
    Параметр CABAC формата : Да
    Параметр RefFrames формата : 3 кадра
    Идентификатор кодека : avc1
    Идентификатор кодека/Информация : Advanced Video Coding
    Продолжительность : 2 ч. 7 м.
    Duration_FirstFrame : -40 мс.
    Битрейт : 2179 Кбит/сек
    Ширина : 1920 пикселей
    Высота : 1080 пикселей
    Соотношение сторон : 16: 9
    Режим частоты кадров : Переменный
    Частота кадров : 25, 000 кадров/сек
    Минимальная частота кадров : 25, 000 кадров/сек
    Максимальная частота кадров : 25, 014 кадров/сек
    Цветовое пространство : YUV
    Субдискретизация насыщенности : 4: 2: 0
    Битовая глубина : 8 бит
    Тип развёртки : Прогрессивная
    Бит/(Пиксели*Кадры) : 0.042
    Размер потока : 1, 93 Гбайт (94%)
    Цветовой диапазон : Limited
    Основные цвета : BT.709
    Характеристики трансфера : BT.709
    Коэффициенты матрицы : BT.709
    Codec configuration box : avcC
    Аудио
    Идентификатор : 2
    Формат : AAC LC
    Формат/Информация : Advanced Audio Codec Low Complexity
    Идентификатор кодека : mp4a-40-2
    Продолжительность : 2 ч. 7 м.
    Вид битрейта : Постоянный
    Битрейт : 126 Кбит/сек
    Каналы : 2 канала
    Channel layout : L R
    Частота : 44, 1 КГц
    Частота кадров : 43, 066 кадра/сек (1024 SPF)
    Метод сжатия : С потерями
    Размер потока : 114 Мбайт (5%)
    Default : Да
    AlternateGroup/String : 1
    Скриншоты:


    Все одноименные релизы в Клубе
    Время раздачи: 24/7 (круглосуточно) (до появления первых 3-5 скачавших)


    Трое в лодке, не считая собаки (1979) WEB-DL [H.264] [MP4|1920x1080]
    Рейтинг →
     (голосов: 1, оценка 5/5, голосовать можно 1 раз )

    Другие торренты по теме:

  • Трое в лодке, не считая собаки (1979) BDRemux [H.264 / 1080p] [16:9] скачать через торрент бесплатно
  • Джером Клапка Джером | Трое в одной лодке (2017) [MP3]
  • Джером К. Джером / Jerome K. Jerome | Трое в лодке, не считая собаки / Three Men in a Boat to Say Nothing of the Dog (2015) [FB2, EPUB]


    • Комментарии (0):

      Информация

      Информация

        Посетители, находящиеся в группе Гости, не могут оставлять комментарии в данной новости.

        ↓ Меню




        ↓ Опрос

        Вы добавили сайт в закладки?
        Да
        Нет


        Top 10 за месяц (КПК и мобильные)