.
Авторизация | Регистрация
Хочешь лучшие торренты? Добавь свой email!
Добавить

Торрент скачать бесплатно

  • support: webmaster@btracker.club
» » Старик Хоттабыч (1956) WEB-DL [H.264] [MP4|1920x1080] торрент скачать бесплатно


    Старик Хоттабыч (1956) WEB-DL [H.264] [MP4|1920x1080] торрент скачать бесплатно

    Опубликовал: fregat | Дата: 6-10-2018, 05:00 | .torrent скачали: 1

    Старик Хоттабыч (1956) WEB-DL [H.264] [MP4|1920x1080]Производство: СССР/Ленфильм
    Жанр: Фэнтези, семейный
    Режиссер: Геннадий Казанский
    Актеры: Николай Волков, Алексей Литвинов, Геннадий Худяков, Лев Ковальчук, Майя Блинова, Ольга Черкасова, Ефим Копелян, Александр Лариков, Евгений Весник, А. Галин

    Описание

    12-летний московский школьник Волька, купаясь в Москве-реке, находит какой-то древний запечатанный сосуд. Мальчишеское любопытство настолько сильно, что при первом же удобном случае Волька вскрывает его, и из сосуда появляется сказочный джинн — Гассан Абдурахман ибн Хоттаб...

    Возраст: 6+ (зрителям, достигшим 6 лет)
    Релиз от: Алехаndr
    Продолжительность: 01: 20: 52
    Качество видео: WEB-DL
    Субтитры: Отсутствуют
    Видео: AVC/H.264, 1920x1080 (16: 9), ~3445 Kbps
    Аудио: AAC, 2 ch, 126 Kbps

    Общее
    Полное имя : G: Старик Хоттабыч (1956).mp4
    Формат : MPEG-4
    Профиль формата : Base Media
    Идентификатор кодека : isom (isom/iso2/avc1/mp41)
    Размер файла : 2, 02 Гбайт
    Продолжительность : 1 ч. 20 м.
    Общий поток : 3575 Кбит/сек
    Программа кодирования : Lavf56.40.101
    Видео
    Идентификатор : 1
    Формат : AVC
    Формат/Информация : Advanced Video Codec
    Профиль формата : High@L4
    Настройки формата : CABAC/2 Ref Frames
    Параметр CABAC формата : Да
    Параметр RefFrames формата : 2 кадра
    Идентификатор кодека : avc1
    Идентификатор кодека/Информация : Advanced Video Coding
    Продолжительность : 1 ч. 20 м.
    Duration_FirstFrame : -40 мс.
    Битрейт : 3443 Кбит/сек
    Ширина : 1920 пикселей
    Высота : 1080 пикселей
    Соотношение сторон : 16: 9
    Режим частоты кадров : Переменный
    Частота кадров : 25, 000 кадров/сек
    Минимальная частота кадров : 25, 000 кадров/сек
    Максимальная частота кадров : 25, 014 кадров/сек
    Цветовое пространство : YUV
    Субдискретизация насыщенности : 4: 2: 0
    Битовая глубина : 8 бит
    Тип развёртки : Прогрессивная
    Бит/(Пиксели*Кадры) : 0.066
    Размер потока : 1, 95 Гбайт (96%)
    Цветовой диапазон : Limited
    Основные цвета : BT.709
    Характеристики трансфера : BT.709
    Коэффициенты матрицы : BT.709
    Codec configuration box : avcC
    Аудио
    Идентификатор : 2
    Формат : AAC LC
    Формат/Информация : Advanced Audio Codec Low Complexity
    Идентификатор кодека : mp4a-40-2
    Продолжительность : 1 ч. 20 м.
    Вид битрейта : Постоянный
    Битрейт : 126 Кбит/сек
    Каналы : 2 канала
    Channel layout : L R
    Частота : 44, 1 КГц
    Частота кадров : 43, 066 кадра/сек (1024 SPF)
    Метод сжатия : С потерями
    Размер потока : 72, 7 Мбайт (4%)
    Default : Да
    AlternateGroup/String : 1
    Скриншоты:


    Все одноименные релизы в Клубе
    Время раздачи: 24/7 (круглосуточно) (до появления первых 3-5 скачавших)


    Старик Хоттабыч (1956) WEB-DL [H.264] [MP4|1920x1080]
    Рейтинг →
     (голосов: 1, оценка 4/5, голосовать можно 1 раз )

    Другие торренты по теме:

  • Лазарь Лагин | Старик Хоттабыч (Полная версия аудиоспектакля) (1958 / 2006) [WavPack] скачать через торрент бесплатно
  • Лазарь Лагин | Старик Хоттабыч (2012) [MP3]
  • Истории и легенды Ленфильма. Старик Хоттабыч (2008) TVRip
  • Лазарь Лагин | Старик Хоттабыч (1970) [JPG]
  • Старик Хоттабыч (1956) BDRip [H.265 / 720p] [10-bit]
  • Старик Хоттабыч (1956) BDRip [H.265 / 1080p] [10-bit]
  • Старик Хоттабыч (1956) BDRip [H.264]
  • Старик Хоттабыч (1956) BDRip [H.265 / 720p-LQ]


    • Комментарии (0):

      Информация

      Информация

        Посетители, находящиеся в группе Гости, не могут оставлять комментарии в данной новости.

        ↓ Меню




        ↓ Опрос

        Вы добавили сайт в закладки?
        Да
        Нет


        Top 10 за месяц (КПК и мобильные)