.
Авторизация | Регистрация
Хочешь лучшие торренты? Добавь свой email!
Добавить

Торрент скачать бесплатно

  • support: webmaster@btracker.club
» » Хороший доктор / The Good Doctor (2018) WEB-DLRip [H.264] (сезон 2, серии 1 из 18) LostFilm [MP4|1280x720] (обновляемая) торрент скачать бесплатно


    Хороший доктор / The Good Doctor (2018) WEB-DLRip [H.264] (сезон 2, серии 1 из 18) LostFilm [MP4|1280x720] (обновляемая) торрент скачать бесплатно

    Опубликовал: fregat | Дата: 2-10-2018, 05:00 | .torrent скачали: 1

    Хороший доктор / The Good Doctor (2018) WEB-DLRip [H.264] (сезон 2, серии 1 из 18) LostFilm [MP4|1280x720] (обновляемая)Производство: США/3AD, ABC Studios, EnterMedia Contents
    Жанр: драма
    Режиссер: Майк Листо, Сет Гордон, Ларри Тенг
    Актеры: Фредди Хаймор, Николас Гонсалес, Антония Томас, Тэмлин Томита, Хилл Харпер, Ричард Шифф, Чуку Моду, Бо Гарретт, Кристина Чанг, Терил Ротери и др.

    Описание

    История молодого талантливого врача с синдромом саванта, обладающего уникальными способностями — невероятной памятью и фантастической чувствительностью к проблемам, вспыхивающим внутри человеческого организма. Герой становится блестящим хирургом, несмотря на это, в личностном плане его развитие соответствует уровню десятилетнего ребёнка...

    Продолжительность: ~00: 43: 00 серия
    Качество видео: WEB-DLRip 720p
    Перевод: Многоголосый закадровый, профессиональный -LostFilm
    Присутствует заставка и логотип LostFilm
    Видео: AVC/H.264, 1280x720 (16: 9), ~4000 kbps
    Аудио: AAC, 48 kHz, 2 ch, 247 kbps — русский, многоголосый закадровый

    Общее
    Полное имя : : The Good Doctor 2 - LostFilm.TV MP4The.Good.Doctor.S02E01.720p.rus.LostFilm.TV.mp4
    Формат : MPEG-4
    Профиль формата : Base Media
    Идентификатор кодека : isom
    Размер файла : 1, 28 Гбайт
    Продолжительность : 43 м.
    Режим общего битрейта : Переменный
    Общий поток : 4251 Кбит/сек
    Дата кодирования : UTC 2018-09-25 18: 12: 59
    Дата пометки : UTC 2018-09-25 18: 12: 59
    Программа кодирования : Yamb 2.1.0.0 http://yamb.unite-video.com
    Видео
    Идентификатор : 1
    Формат : AVC
    Формат/Информация : Advanced Video Codec
    Профиль формата : High@L4.1
    Параметр CABAC формата : Да
    Параметр ReFrames формата : 4 кадра
    Идентификатор кодека : avc1
    Идентификатор кодека/Информация : Advanced Video Coding
    Продолжительность : 43 м.
    Битрейт : 4000 Кбит/сек
    Максимальный битрейт : 18, 1 Мбит/сек
    Ширина : 1280 пикселей
    Высота : 720 пикселей
    Соотношение сторон : 16: 9
    Режим частоты кадров : Постоянный
    Частота кадров : 23, 976 кадра/сек
    Цветовое пространство : YUV
    Субдискретизация насыщенности : 4: 2: 0
    Битовая глубина : 8 бит
    Тип развёртки : Прогрессивная
    Бит/(Пиксели*Кадры) : 0.181
    Размер потока : 1, 21 Гбайт (94%)
    Заголовок : Imported with GPAC 0.4.6-DEV (internal rev. 5)
    Библиотека кодирования : x264 core 112 r1834 a51816a
    Настройки программы : cabac=1/ref=4/deblock=1: -3: -2/analyse=0x3: 0x113/me=hex/subme=7/psy=1/psy_rd=1.00: 0.00/mixed_ref=1/me_range=16/chroma_me=1/trellis=1/8x8dct=1/cqm=0/deadzone=21, 11/fast_pskip=1/chroma_qp_offset=-2/threads=12/sliced_threads=0/nr=0/decimate=1/interlaced=0/constrained_intra=0/bframes=5/b_pyramid=2/b_adapt=1/b_bias=0/direct=1/weightb=1/open_gop=0/weightp=2/keyint=250/keyint_min=25/scenecut=40/intra_refresh=0/rc_lookahead=40/rc=2pass/mbtree=1/bitrate=4000/ratetol=1.0/qcomp=0.60/qpmin=0/qpmax=51/qpstep=4/cplxblur=20.0/qblur=0.5/vbv_maxrate=10000/vbv_bufsize=256000/ip_ratio=1.40/aq=1: 1.00/nal_hrd=none
    Дата кодирования : UTC 2018-09-24 20: 02: 42
    Дата пометки : UTC 2018-09-25 18: 13: 27
    Аудио
    Идентификатор : 2
    Формат : AAC
    Формат/Информация : Advanced Audio Codec
    Профиль формата : LC
    Идентификатор кодека : 40
    Продолжительность : 43 м.
    Вид битрейта : Переменный
    Битрейт : 247 Кбит/сек
    Максимальный битрейт : 296 Кбит/сек
    Каналы : 2 канала
    Расположение каналов : Front: L R
    Частота : 48, 0 КГц
    Метод сжатия : С потерями
    Размер потока : 76, 3 Мбайт (6%)
    Дата кодирования : UTC 2018-09-25 18: 13: 25
    Дата пометки : UTC 2018-09-25 18: 13: 27


    Хороший доктор/The Good Doctor (2018) WEB-DLRip [H.264] (сезон 2, серии 1 из 18) LostFilm [MP4|1280x720] (обновляемая)
    Рейтинг →
     (голосов: 1, оценка 3/5, голосовать можно 1 раз )

    Другие торренты по теме:

  • Хороший доктор / The Good Doctor (2017) WEB-DL [H.264 / 1080p-LQ] (сезон 1, серии 1 из 6) NewStudio (обновляемая)
  • Хороший доктор / The Good Doctor (2017) WEB-DL [H.264 / 720p-LQ] (сезон 1, серии 1 из 6) NewStudio (обновляемая)
  • Хороший доктор / The Good Doctor (2017) WEBRip (сезон 1, серии 1-8 из 13) BaibaKo (обновляемая) [AD]
  • Хороший доктор / The Good Doctor (2017) WEB-DLRip (сезон 1, серии 1-12 из 18) LostFilm (обновляемая)
  • Хороший доктор / The Good Doctor (2017) WEB-DLRip [H.264] (сезон 1, серии 1-13 из 18) LostFilm [MP4|1280x720] [AD]
  • Хороший доктор / The Good Doctor (2018) WEB-DLRip (сезон 2, серии 1 из ) LostFilm (обновляемая)
  • Хороший доктор / The Good Doctor (2018) WEB-DLRip [H.264 / 1080p-LQ] (сезон 2, серии 1 из 18) LostFilm (обновляемая)
  • Хороший доктор / The Good Doctor (2018) WEB-DL [H.264 / 1080p-LQ] (сезон 2, серии 1-4 из 18) TVShows (обновляемая)


    • Комментарии (0):

      Информация

      Информация

        Посетители, находящиеся в группе Гости, не могут оставлять комментарии в данной новости.

        ↓ Меню




        ↓ Опрос

        Вы добавили сайт в закладки?
        Да
        Нет


        Top 10 за месяц (КПК и мобильные)