.
Авторизация | Регистрация
Хочешь лучшие торренты? Добавь свой email!
Добавить

Торрент скачать бесплатно

  • support: webmaster@btracker.club
» » Пурга / Dao gao yi zhang / The Blizzard (2018) WEB-DL [H.264] [MP4|1920x816] [CHI / EN, CHI Sub] торрент скачать бесплатно


    Пурга / Dao gao yi zhang / The Blizzard (2018) WEB-DL [H.264] [MP4|1920x816] [CHI / EN, CHI Sub] торрент скачать бесплатно

    Опубликовал: fregat | Дата: 29-09-2018, 05:00 | .torrent скачали: 4

    Пурга / Dao gao yi zhang / The Blizzard (2018) WEB-DL [H.264] [MP4|1920x816] [CHI / EN, CHI Sub]Производство: Китай/iQiyi Pictures
    Жанр: криминал, драма
    Режиссер: Цзян Кайян
    Продюсер: Цзян Кайян
    Актеры: Не Юань, Тань Кай, Юй Минцзя, Цюй Гаовэй, Чжан Лу, Дун Божуй, Лю Юнси, Пэн Лин, Ши Гуанхуэй, Сун Чуньли

    Описание

    История двух друзей-выпускников полицейской академии и их отчисленного товарища Суна. Последнего внедряют в преступную группировку вместе с отцом одного из друзей, но из-за бандитской диверсии отец погибает, а подозрение в его смерти падает на Суна. Теперь, объятый горем сын жаждет мести...

    Продолжительность: 01: 38: 34
    Качество видео: WEB-DL
    Перевод: отсутствует
    Язык озвучки: китайский
    Субтитры: английские, китайские (неотключаемые)
    Видео: AVC, 1920x816, ~2355 kbps
    Аудио: EAC3, 6 ch, 448 kbps

    Код: выделить все
    Общее
    Полное имя : The Blizzard 2018 1080P WEB-DL X264 DDP5.1-DYGC.mp4
    Формат : MPEG-4
    Профиль формата : Base Media
    Идентификатор кодека : isom (isom)
    Размер файла : 1, 93 Гбайт
    Продолжительность : 1 ч. 38 м.
    Общий поток : 2806 Кбит/сек
    Название фильма : 电影工厂
    Дата кодирования : UTC 2018-09-20 08:22:42
    Дата пометки : UTC 2018-09-20 08:22:42
    Программа кодирования : DYGC
    Авторское право :WWW.DYGC.ORG
    Обложка : Yes
    Видео
    Идентификатор : 1
    Формат : AVC
    Формат/Информация : Advanced Video Codec
    Профиль формата : High@L4
    Настройки формата : CABAC/3 Ref Frames
    Параметр CABAC формата : Да
    Параметр RefFrames формата : 3 кадра
    Идентификатор кодека : avc1
    Идентификатор кодека/Информация : Advanced Video Coding
    Продолжительность : 1 ч. 38 м.
    Продолжительность оригинала : 1 ч. 38 м.
    Битрейт : 2355 Кбит/сек
    Максимальный битрейт : 13, 2 Мбит/сек
    Ширина : 1920 пикселей
    Высота : 816 пикселей
    Соотношение сторон : 2, 35:1
    Режим частоты кадров : Переменный
    Частота кадров : 24, 000 кадра/сек
    Минимальная частота кадров : 23, 622 кадра/сек
    Максимальная частота кадров : 24, 793 кадров/сек
    Цветовое пространство : YUV
    Субдискретизация насыщенности : 4:2:0
    Битовая глубина : 8 бит
    Тип развёртки : Прогрессивная
    Бит/(Пиксели*Кадры) : 0.063
    Размер потока : 1, 62 Гбайт (84%)
    Размер потока оригинала : 1, 62 Гбайт (84%)
    Дата пометки : UTC 2018-09-20 08:26:01
    Цветовой диапазон : Limited
    Основные цвета : BT.709
    Характеристики трансфера : BT.709
    Коэффициенты матрицы : BT.709
    Codec configuration box : avcC
    Аудио
    Идентификатор : 2
    Формат : E-AC-3 JOC
    Формат/Информация : Enhanced AC-3 with Joint Object Coding
    Коммерческое название : Dolby Digital Plus with Dolby Atmos
    Идентификатор кодека : ec-3
    Продолжительность : 1 ч. 38 м.
    Продолжительность оригинала : 1 ч. 38 м.
    Вид битрейта : Постоянный
    Битрейт : 448 Кбит/сек
    Максимальный битрейт : 473 Кбит/сек
    Каналы : 6 каналов
    Channel layout : L R C LFE Ls Rs
    Частота : 48, 0 КГц
    Частота кадров : 31, 250 кадров/сек (1536 SPF)
    Битовая глубина : 16 бит
    Метод сжатия : С потерями
    Размер потока : 316 Мбайт (16%)
    Размер потока оригинала : 316 Мбайт (16%)
    Заголовок : DDP5.1
    ServiceKind/String : Complete Main
    Default : Да
    AlternateGroup/String : 1
    Дата пометки : UTC 2018-09-20 08:26:04
    Complexity index : Not present/16
    Number of dynamic objects : 15
    Bed channel count : 1 канал
    Bed channel configuration : LFE

    Скриншоты:


    Все одноименные релизы в Клубе
    Время раздачи: с 10: 00 до 22: 00 (до появления первых 3-5 скачавших)


    Пурга/Dao gao yi zhang/The Blizzard (2018) WEB-DL [H.264] [MP4|1920x816] [CHI/EN, CHI Sub]
    Рейтинг →
     (голосов: 1, оценка 5/5, голосовать можно 1 раз )

    Другие торренты по теме:

  • Пурга / Dao gao yi zhang / The Blizzard (2018) WEBRip [MVO] [AD]


    • Комментарии (0):

      Информация

      Информация

        Посетители, находящиеся в группе Гости, не могут оставлять комментарии в данной новости.

        ↓ Меню




        ↓ Опрос

        Вы добавили сайт в закладки?
        Да
        Нет


        Top 10 за месяц (КПК и мобильные)