.
Авторизация | Регистрация
Хочешь лучшие торренты? Добавь свой email!
Добавить

Торрент скачать бесплатно

  • support: webmaster@btracker.club
» » Тобот / Tobot (2010) WEB-DL [H.264] (сезоны 3-4, серии 44 из 44) [MP4|1280х720] торрент скачать бесплатно


    Тобот / Tobot (2010) WEB-DL [H.264] (сезоны 3-4, серии 44 из 44) [MP4|1280х720] торрент скачать бесплатно

    Опубликовал: fregat | Дата: 27-09-2018, 05:00 | .torrent скачали: 2

    Тобот / Tobot (2010) WEB-DL [H.264] (сезоны 3-4, серии 44 из 44) [MP4|1280х720]Производство: Южная Корея, студии Young Toys и Retrobot
    Жанр: Приключения, Фентези
    Режиссер: Дал Ли

    Описание

    Тоботы — южнокорейский мультсериал производства Young Toys и Retrobot, созданный в 2010 году. Расследуя цепочку загадочных автокатастроф, доктор Франклин Чар угнан преступниками. Этот инцидент активизирует его творение под названием Тобот, автомобили, которые превращаются в роботов с помощью специального ключа, называемого Tokey. Первые два Тобота доктора Чара, Тобот X и Тобот Y, доверенные его сыновьям-близнецам Райану и Кори соответственно. Они вместе должны бороться с преступностью и защищать окрестности своего родного города.

    Возраст: 6+ (зрителям, достигшим 6 лет)
    Продолжительность: ~00: 22: 00 серия
    Качество видео: WEB-DL
    Перевод: Дублированный
    Субтитры: отсутствуют
    Видео: AVC/H.264, 1280х720, ~2560 kb/s
    Аудио: AAC, 2 ch, ~511 kb/s

    General
    Complete name : H: or temps03e01 720p.mp4
    Format : MPEG-4
    Format profile : Base Media
    Codec ID : isom (isom/iso2/avc1/mp41)
    File size : 463 MiB
    Duration : 21 min 2 s
    Overall bit rate : 3 076 kb/s
    Writing application : Lavf55.33.100
    Video
    ID : 1
    Format : AVC
    Format/Info : Advanced Video Codec
    Format profile : High@L4
    Format settings : CABAC/4 Ref Frames
    Format settings, CABAC : Yes
    Format settings, ReFrames : 4 frames
    Codec ID : avc1
    Codec ID/Info : Advanced Video Coding
    Duration : 21 min 1 s
    Bit rate : 2 569 kb/s
    Width : 1 280 pixels
    Height : 720 pixels
    Display aspect ratio : 16: 9
    Frame rate mode : Constant
    Frame rate : 25.000 FPS
    Color space : YUV
    Chroma subsampling : 4: 2: 0
    Bit depth : 8 bits
    Scan type : Progressive
    Bits/(Pixel*Frame) : 0.112
    Stream size : 385 MiB (83%)
    Writing library : x264 core 142
    Encoding settings : cabac=1/ref=3/deblock=1: 0: 0/analyse=0x3: 0x113/me=hex/subme=7/psy=1/psy_rd=1.00: 0.00/mixed_ref=1/me_range=16/chroma_me=1/trellis=1/8x8dct=1/cqm=0/deadzone=21, 11/fast_pskip=1/chroma_qp_offset=-2/threads=36/lookahead_threads=5/sliced_threads=0/nr=0/decimate=1/interlaced=0/bluray_compat=0/constrained_intra=0/bframes=6/b_pyramid=2/b_adapt=1/b_bias=0/direct=1/weightb=1/open_gop=0/weightp=2/keyint=50/keyint_min=26/scenecut=0/intra_refresh=0/rc_lookahead=40/rc=2pass/mbtree=1/bitrate=2569/ratetol=1.0/qcomp=0.60/qpmin=0/qpmax=69/qpstep=4/cplxblur=20.0/qblur=0.5/vbv_maxrate=3854/vbv_bufsize=10279/nal_hrd=none/filler=0/ip_ratio=1.40/aq=1: 1.00
    Tagged date : UTC 2018-06-26 02: 50: 02
    Audio
    ID : 2
    Format : AAC
    Format/Info : Advanced Audio Codec
    Format profile : LC
    Codec ID : mp4a-40-2
    Duration : 21 min 2 s
    Bit rate mode : Constant
    Bit rate : 512 kb/s
    Channel(s) : 2 channels
    Channel positions : Front: L R
    Sampling rate : 48.0 kHz
    Frame rate : 46.875 FPS (1024 SPF)
    Compression mode : Lossy
    Stream size : 77.0 MiB (17%)
    Language : English
    Default : Yes
    Alternate group : 1
    Tagged date : UTC 2018-06-26 02: 50: 02
    Скриншоты:


    Все одноименные релизы в Клубе
    Время раздачи: 24/7 (круглосуточно) (до появления первых 3-5 скачавших)


    Тобот/Tobot (2010) WEB-DL [H.264] (сезоны 3-4, серии 44 из 44) [MP4|1280х720]
    Рейтинг →
     (голосов: 1, оценка 5/5, голосовать можно 1 раз )

    Другие торренты по теме:



      Комментарии (0):

      Информация

      Информация

        Посетители, находящиеся в группе Гости, не могут оставлять комментарии в данной новости.

        ↓ Меню




        ↓ Опрос

        Вы добавили сайт в закладки?
        Да
        Нет


        Top 10 за месяц (КПК и мобильные)