.
Авторизация | Регистрация
Хочешь лучшие торренты? Добавь свой email!
Добавить

Торрент скачать бесплатно

  • support: webmaster@btracker.club
» » Днюха! (2018) WEB-DLRip [H.264] [MP4|1280x720] торрент скачать бесплатно


    Днюха! (2018) WEB-DLRip [H.264] [MP4|1280x720] торрент скачать бесплатно

    Опубликовал: fregat | Дата: 22-09-2018, 05:00 | .torrent скачали: 0

    Днюха! (2018) WEB-DLRip [H.264] [MP4|1280x720]Производство: Россия
    Жанр: Комедия
    Режиссер: Роман Каримов
    Актеры: Эльдар Калимулин, Данила Чванов, Алина Титова, Никита Санаев, Ангелина Семашкова, Виктория Иванькова, Евгения Годунова, Ирина Савакова

    Описание

    Отгуляв днюху своего лучшего друга, Антон очнулся в другом городе. Он заперт в квартире незнакомой девушки, ничего не помнит, а жесткие видеоролики его вчерашних подвигов взрывают интернет. Компромат с бешеной скоростью набирает лайки, его в любой момент может увидеть девушка Антона — Марина, в отношениях с которой он уже сделал самый важный шаг…

    Возраст: 16+ (зрителям, достигшим 16 лет)
    Дата российской премьеры: 23 августа 2018
    Продолжительность: 01: 31: 40
    Качество видео: WEB-DLRip
    Перевод: Не требуется (русский)
    Субтитры: Отсутствуют
    Видео: AVC/H.264, 1280x720, ~2569 kbps, 25 fps
    Аудио: AAC, 2 ch, ~512 kbps

    General
    Complete name : C: UsersSkyLineDesktopDownloadsВидеоДнюха (2018) WebDL HD720.mp4
    Format : MPEG-4
    Format profile : Base Media
    Codec ID : isom (isom/iso2/avc1/mp41)
    File size : 1.97 GiB
    Duration : 1 h 31 min
    Overall bit rate : 3 078 kb/s
    Writing application : Lavf55.33.100
    Video
    ID : 1
    Format : AVC
    Format/Info : Advanced Video Codec
    Format profile : High@L4
    Format settings, CABAC : Yes
    Format settings, RefFrames : 4 frames
    Codec ID : avc1
    Codec ID/Info : Advanced Video Coding
    Duration : 1 h 31 min
    Bit rate : 2 569 kb/s
    Width : 1 280 pixels
    Height : 720 pixels
    Display aspect ratio : 16: 9
    Frame rate mode : Constant
    Frame rate : 25.000 FPS
    Color space : YUV
    Chroma subsampling : 4: 2: 0
    Bit depth : 8 bits
    Scan type : Progressive
    Bits/(Pixel*Frame) : 0.112
    Stream size : 1.64 GiB (83%)
    Writing library : x264 core 142
    Encoding settings : cabac=1/ref=3/deblock=1: 0: 0/analyse=0x3: 0x113/me=hex/subme=7/psy=1/psy_rd=1.00: 0.00/mixed_ref=1/me_range=16/chroma_me=1/trellis=1/8x8dct=1/cqm=0/deadzone=21, 11/fast_pskip=1/chroma_qp_offset=-2/threads=108/lookahead_threads=5/sliced_threads=0/nr=0/decimate=1/interlaced=0/bluray_compat=0/constrained_intra=0/bframes=6/b_pyramid=2/b_adapt=1/b_bias=0/direct=1/weightb=1/open_gop=0/weightp=2/keyint=50/keyint_min=26/scenecut=0/intra_refresh=0/rc_lookahead=40/rc=2pass/mbtree=1/bitrate=2569/ratetol=1.0/qcomp=0.60/qpmin=0/qpmax=69/qpstep=4/cplxblur=20.0/qblur=0.5/vbv_maxrate=3854/vbv_bufsize=10279/nal_hrd=none/filler=0/ip_ratio=1.40/aq=1: 1.00
    Tagged date : UTC 2018-09-19 22: 31: 33
    Audio
    ID : 2
    Format : AAC
    Format/Info : Advanced Audio Codec
    Format profile : LC
    Codec ID : 40
    Duration : 1 h 31 min
    Duration_LastFrame : 43 ms
    Bit rate mode : Constant
    Bit rate : 512 kb/s
    Channel(s) : 2 channels
    Channel positions : Front: L R
    Sampling rate : 48.0 kHz
    Frame rate : 46.875 FPS (1024 SPF)
    Compression mode : Lossy
    Stream size : 336 MiB (17%)
    Language : Russian
    Default : Yes
    Alternate group : 1
    Tagged date : UTC 2018-09-19 22: 31: 33
    Скриншоты:


    Все одноименные релизы в Клубе
    Время раздачи: 24/7 (круглосуточно) (до появления первых 3-5 скачавших)


    Днюха! (2018) WEB-DLRip [H.264] [MP4|1280x720]
    Рейтинг →
     (голосов: 1, оценка 3/5, голосовать можно 1 раз )

    Другие торренты по теме:

  • Днюха! (2018) WEB-DLRip
  • Днюха! (2018) WEB-DLRip [H.264]
  • Днюха! (2018) WEB-DLRip [576p] iPad


    • Комментарии (0):

      Информация

      Информация

        Посетители, находящиеся в группе Гости, не могут оставлять комментарии в данной новости.

        ↓ Меню




        ↓ Опрос

        Вы добавили сайт в закладки?
        Да
        Нет


        Top 10 за месяц (КПК и мобильные)