.
Авторизация | Регистрация
Хочешь лучшие торренты? Добавь свой email!
Добавить

Торрент скачать бесплатно

  • support: webmaster@btracker.club
» » Полосатый рейс (1961) WEB-DL [H.264] [MP4|1920x1080] торрент скачать бесплатно


    Полосатый рейс (1961) WEB-DL [H.264] [MP4|1920x1080] торрент скачать бесплатно

    Опубликовал: fregat | Дата: 18-09-2018, 05:00 | .torrent скачали: 0

    Полосатый рейс (1961) WEB-DL [H.264] [MP4|1920x1080]Производство: СССР/Ленфильм
    Жанр: Комедия, приключения, семейный
    Режиссер: Владимир Фетин
    Актеры: Алексей Грибов, Иван Дмитриев, Маргарита Назарова, Евгений Леонов, Владимир Белокуров, Николай Волков, Александр Бениаминов, Аркадий Трусов, Алексей Смирнов, Алексей Кожевников

    Описание

    На советский теплоход погрузили опасный груз — тигров и львов, а сопровождать приставили буфетчика… Во время плавания маленькая обезьянка, подаренная капитану, открывает клетки. Хищники выходят на свободу, вся команда в ужасе разбегается. И только племяннице капитана удается спасти положение, укротив диких зверей…

    Возраст: 12+ (зрителям, достигшим 12 лет)
    Релиз от: Алехаndr
    Продолжительность: 01: 23: 33
    Качество видео: WEB-DL
    Субтитры: Отсутствуют
    Видео: AVC/H.264, 1920x1080 (16: 9), ~2785 Kbps
    Аудио: AAC, 2 ch, 126 Kbps

    Общее
    Полное имя : G: Полосатый рейс (1961).by.Алехаndr.mp4
    Формат : MPEG-4
    Профиль формата : Base Media
    Идентификатор кодека : isom (isom/iso2/avc1/mp41)
    Размер файла : 1, 70 Гбайт
    Продолжительность : 1 ч. 23 м.
    Общий поток : 2917 Кбит/сек
    Программа кодирования : Lavf56.40.101
    Видео
    Идентификатор : 1
    Формат : AVC
    Формат/Информация : Advanced Video Codec
    Профиль формата : High@L4
    Настройки формата : CABAC/3 Ref Frames
    Параметр CABAC формата : Да
    Параметр RefFrames формата : 3 кадра
    Идентификатор кодека : avc1
    Идентификатор кодека/Информация : Advanced Video Coding
    Продолжительность : 1 ч. 23 м.
    Duration_FirstFrame : -40 мс.
    Битрейт : 2785 Кбит/сек
    Ширина : 1920 пикселей
    Высота : 1080 пикселей
    Соотношение сторон : 16: 9
    Режим частоты кадров : Переменный
    Частота кадров : 25, 000 кадров/сек
    Минимальная частота кадров : 25, 000 кадров/сек
    Максимальная частота кадров : 25, 014 кадров/сек
    Цветовое пространство : YUV
    Субдискретизация насыщенности : 4: 2: 0
    Битовая глубина : 8 бит
    Тип развёртки : Прогрессивная
    Бит/(Пиксели*Кадры) : 0.054
    Размер потока : 1, 63 Гбайт (95%)
    Цветовой диапазон : Limited
    Основные цвета : BT.709
    Характеристики трансфера : BT.709
    Коэффициенты матрицы : BT.709
    Codec configuration box : avcC
    Аудио
    Идентификатор : 2
    Формат : AAC LC
    Формат/Информация : Advanced Audio Codec Low Complexity
    Идентификатор кодека : mp4a-40-2
    Продолжительность : 1 ч. 23 м.
    Вид битрейта : Постоянный
    Битрейт : 126 Кбит/сек
    Каналы : 2 канала
    Channel layout : L R
    Частота : 44, 1 КГц
    Частота кадров : 43, 066 кадра/сек (1024 SPF)
    Метод сжатия : С потерями
    Размер потока : 75, 1 Мбайт (4%)
    Default : Да
    AlternateGroup/String : 1
    Скриншоты:


    Все одноименные релизы в Клубе
    Время раздачи: 24/7 (круглосуточно) (до появления первых 3-5 скачавших)


    Полосатый рейс (1961) WEB-DL [H.264] [MP4|1920x1080]
    Рейтинг →
     (голосов: 1, оценка 3/5, голосовать можно 1 раз )

    Другие торренты по теме:

  • Полосатый рейс (1961) BDRip [H.264]
  • Полосатый рейс (1961) BDRip [H.264 / 1080p-LQ] скачать через торрент бесплатно


    • Комментарии (0):

      Информация

      Информация

        Посетители, находящиеся в группе Гости, не могут оставлять комментарии в данной новости.

        ↓ Меню




        ↓ Опрос

        Вы добавили сайт в закладки?
        Да
        Нет


        Top 10 за месяц (КПК и мобильные)