.
Авторизация | Регистрация
Хочешь лучшие торренты? Добавь свой email!
Добавить

Торрент скачать бесплатно

  • support: webmaster@btracker.club
» » Кукутики: Полная коллекция / (Kukutiki: Full collection) (2015-2018) WEB-DLRip [H.264] (Серии 1-79 из 79 + Караоке версии 1-16 из 16) [MP4|1280x720] торрент скачать бесплатно


    Кукутики: Полная коллекция / (Kukutiki: Full collection) (2015-2018) WEB-DLRip [H.264] (Серии 1-79 из 79 + Караоке версии 1-16 из 16) [MP4|1280x720] торрент скачать бесплатно

    Опубликовал: Админ | Дата: 20-01-2018, 05:00 | .torrent скачали: 844

    Кукутики: Полная коллекция / (Kukutiki: Full collection) (2015-2018) WEB-DLRip [H.264] (Серии 1-79 из 79 + Караоке версии 1-16 из 16) [MP4|1280x720]Производство: Россия/BigPapa Media
    Жанр: Семейный, Музыкальный, Компьютерная анимация, Детский, Развивающий
    Режиссер: Артур Днепровский, Рустам Салахов
    Актеры: Кристиан Азаров, Вероника Ковылина, Соня Шмыкова, Артём Кузнецов, Эдэм Джейдан, Лиза Запорожец, Тимофей Сушин, Стася Фёдорова, Артемий Аликов, Нестор Абрамов, Алиса Рогачева, Арсений Никитин

    Описание

    Кукутики — музыкальный проект и канал для детей от 0 до 5 лет.
    В нашей команде пятеро персонажей: Мышонок, Поросенок, Енот, Девочка и Мальчик!
    Каждая серия нашего проекта — веселый развлекательный развивающий музыкальный клип — мультик!
    Пойте и танцуйте вместе с участниками нашего шоу! Ведь это так весело и интересно! И даже полезно...

    Возраст: 0+ (для любой зрительской аудитории)
    Рейтинг MPAA: этот продукт не был классифицирован
    Продолжительность: ~00: 06: 00 серия
    Качество видео: WEB-DLRip
    Перевод: Не требуется
    Субтитры: Отсутствуют
    Видео: AVC/H.264, 1280x720, ~1507 kbps
    Аудио: AAC, 2 ch, 126 kbps

    Формат : MPEG-4
    Профиль формата : Base Media/Version 2
    Идентификатор кодека : mp42 (isom/mp42)
    Размер файла : 73, 2 Мбайт
    Продолжительность : 6 м. 15 с.
    Режим общего битрейта : Переменный
    Общий поток : 1636 Кбит/сек
    Дата кодирования : UTC 2017-12-11 18: 59: 26
    Дата пометки : UTC 2017-12-11 18: 59: 26
    gsst : 0
    gstd : 375466
    Видео
    Идентификатор : 1
    Формат : AVC
    Формат/Информация : Advanced Video Codec
    Профиль формата : Main@L3.1
    Настройки формата : CABAC/3 Ref Frames
    Параметр CABAC формата : Да
    Параметр RefFrames формата : 3 кадра
    Идентификатор кодека : avc1
    Идентификатор кодека/Информация : Advanced Video Coding
    Продолжительность : 6 м. 15 с.
    Битрейт : 1507 Кбит/сек
    Ширина : 1280 пикселей
    Высота : 720 пикселей
    Соотношение сторон : 16: 9
    Режим частоты кадров : Постоянный
    Частота кадров : 25, 000 кадров/сек
    Цветовое пространство : YUV
    Субдискретизация насыщенности : 4: 2: 0
    Битовая глубина : 8 бит
    Тип развёртки : Прогрессивная
    Бит/(Пиксели*Кадры) : 0.065
    Размер потока : 67, 4 Мбайт (92%)
    Заголовок : ISO Media file produced by Google Inc. Created on: 12/11/2017.
    Дата кодирования : UTC 2017-12-11 18: 59: 26
    Дата пометки : UTC 2017-12-11 18: 59: 26
    Цветовой диапазон : Limited
    Основные цвета : BT.709
    Характеристики трансфера : BT.709
    Коэффициенты матрицы : BT.709
    Аудио
    Идентификатор : 2
    Формат : AAC
    Формат/Информация : Advanced Audio Codec
    Профиль формата : LC
    Идентификатор кодека : mp4a-40-2
    Продолжительность : 6 м. 15 с.
    Вид битрейта : Переменный
    Битрейт : 126 Кбит/сек
    Каналы : 2 канала
    Расположение каналов : Front: L R
    Частота : 44, 1 КГц
    Частота кадров : 43, 066 кадра/сек (1024 SPF)
    Метод сжатия : С потерями
    Размер потока : 5, 62 Мбайт (8%)
    Заголовок : ISO Media file produced by Google Inc. Created on: 12/11/2017.
    Дата кодирования : UTC 2017-12-11 18: 59: 26
    Дата пометки : UTC 2017-12-11 18: 59: 26


    Кукутики: Полная коллекция/(Kukutiki: Full collection) (2015-2018) WEB-DLRip [H.264] (Серии 1-79 из 79 + Караоке версии 1-16 из 16) [MP4|1280x720]
    Рейтинг →
     (голосов: 1, оценка 4/5, голосовать можно 1 раз )

    Другие торренты по теме:

  • Кукутики - Сказки (2018) [MP3|320 Kbps] <Детские песни>
  • Кукутики - Киса (2017) [MP3|320 Kbps] <Детские песни>


    • Комментарии (0):

      Информация

      Информация

        Посетители, находящиеся в группе Гости, не могут оставлять комментарии в данной новости.

        ↓ Меню




        ↓ Опрос

        Вы добавили сайт в закладки?
        Да
        Нет


        Top 10 за месяц (КПК и мобильные)