.
Авторизация | Регистрация
Хочешь лучшие торренты? Добавь свой email!
Добавить

Торрент скачать бесплатно

  • support: webmaster@btracker.club
» » СуперБобровы. Народные мстители (2017) WEB-DL [H.264 / 1080p-LQ] торрент скачать бесплатно


    СуперБобровы. Народные мстители (2017) WEB-DL [H.264 / 1080p-LQ] торрент скачать бесплатно

    Опубликовал: gkHymerRozagp | Дата: 14-01-2019, 14:11 | .torrent скачали: 5

    СуперБобровы. Народные мстители (2017) WEB-DL [H.264 / 1080p-LQ]Производство: Россия, Yellow, Black White
    Жанр: Комедия, Семейный
    Режиссер: Дмитрий Дьяченко
    Продюсер: Эдуард Илоян, Виталий Шляппо, Алексей Троцюк

    Актеры
    Павел Деревянко, Оксана Акиньшина, Роман Мадянов, Ирина Пегова, Владимир Толоконников, Даниил Вахрушев, Елена Валюшкина, Роман Курцын, Стас Оксаний, Владимир Паршенков

    Описание

    Действие картины начинается в Таиланде, где семья Бобровых скрылась от правосудия. Теперь им приходится выступать в цирке-шапито, демонстрируя туристам свои суперспособности. Быть цирковыми обезьянками семейству явно не по душе — все хотят домой, на Родину. У Олега и Светы разлад в отношениях: она мечтает о детях, а Олегу совсем не до этого. И вот очередной скандал семьи: Олег уходит, хлопнув дверью. Возвращается, а Бобровых нет. Они уехали. Олегу приходится отправиться в Россию. На родине ему предстоит не только вновь завоевать сердце Светы, но и объединить суперсилы семейства Бобровых в схватке со злодеями планетарного масштаба, сделав из нерадивых родственников настоящих супергероев.

    Возраст: 12+ (зрителям, достигшим 12 лет)
    Дата российской премьеры: 20 октября 2018, WDSSPR
    Продолжительность: 01: 29: 12
    Качество видео: WEB-DL
    Перевод: Не требуется (русский) iTunes
    Субтитры: Отсутствуют
    Видео: AVC/H.264, 1920x806 (2.40: 1), 4523 kbps
    Аудио: АС3, 6 ch, 48 kHz, 384 Kbps | Русский
    Общее
    Уникальный идентификатор : 254219658565621440379191559003197689345 (0xBF40ECDFB2644AB9B7C810578C2C4E01)
    Полное имя : D: СуперБобровы.Народные.мстители.2017.WEB-DL.1080p.NNMClub.mkv
    Формат : Matroska
    Версия формата : Version 4
    Размер файла : 3, 06 Гбайт
    Продолжительность : 1 ч. 29 м.
    Общий поток : 4908 Кбит/сек
    Дата кодирования : UTC 2018-12-06 06: 58: 01
    Программа кодирования : mkvmerge v8.3.0 (\'Over the Horizon\') 64bit
    Библиотека кодирования : libebml v1.3.1 + libmatroska v1.4.2
    Видео
    Идентификатор : 1
    Формат : AVC
    Формат/Информация : Advanced Video Codec
    Профиль формата : High@L4
    Настройки формата : CABAC/5 Ref Frames
    Параметр CABAC формата : Да
    Параметр RefFrames формата : 5 кадров
    Идентификатор кодека : V_MPEG4/ISO/AVC
    Продолжительность : 1 ч. 29 м.
    Битрейт : 4523 Кбит/сек
    Ширина : 1920 пикселей
    Высота : 806 пикселей
    Соотношение сторон : 2, 40: 1
    Режим частоты кадров : Постоянный
    Частота кадров : 24, 000 кадра/сек
    Цветовое пространство : YUV
    Субдискретизация насыщенности : 4: 2: 0
    Битовая глубина : 8 бит
    Тип развёртки : Прогрессивная
    Бит/(Пиксели*Кадры) : 0.122
    Размер потока : 2, 82 Гбайт (92%)
    Язык : English
    Default : Да
    Forced : Нет
    Цветовой диапазон : Limited
    Основные цвета : BT.709
    Характеристики трансфера : BT.709
    Коэффициенты матрицы : BT.709
    Аудио
    Идентификатор : 2
    Формат : AC-3
    Формат/Информация : Audio Coding 3
    Коммерческое название : Dolby Digital
    Идентификатор кодека : A_AC3
    Продолжительность : 1 ч. 29 м.
    Вид битрейта : Постоянный
    Битрейт : 384 Кбит/сек
    Каналы : 6 каналов
    Channel layout : L R C LFE Ls Rs
    Частота : 48, 0 КГц
    Частота кадров : 31, 250 кадров/сек (1536 SPF)
    Битовая глубина : 16 бит
    Метод сжатия : С потерями
    Размер потока : 245 Мбайт (8%)
    Заголовок : iTunes
    Язык : Russian
    ServiceKind/String : Complete Main
    Default : Да
    Forced : Нет
    Меню
    00: 00: 00.000 : en: Глава 1
    00: 09: 36.833 : en: Глава 2
    00: 16: 27.708 : en: Глава 3
    00: 20: 27.874 : en: Глава 4
    00: 28: 11.707 : en: Глава 5
    00: 37: 13.457 : en: Глава 6
    00: 45: 49.165 : en: Глава 7
    00: 52: 39.290 : en: Глава 8
    01: 01: 36.831 : en: Глава 9
    01: 07: 57.914 : en: Глава 10
    01: 14: 11.122 : en: Глава 11
    01: 21: 00.872 : en: Глава 12

    Скриншоты для ознакомления



    Все одноименные релизы в Клубе
    Время раздачи: 24/7 (круглосуточно) (до появления первых 3-5 скачавших)


    Онлайн видео СуперБобровы. Народные мстители (2017) WEB-DL [H.264



    СуперБобровы. Народные мстители (2017) WEB-DL [H.264/1080p-LQ]
    Рейтинг →
     (голосов: 1, оценка 3/5, голосовать можно 1 раз )

    Другие торренты по теме:

  • СуперБобровы. Народные мстители (2017) WEBRip [H.264 / 720p-LQ]
  • СуперБобровы. Народные мстители (2017) WEB-DLRip [H.264]
  • СуперБобровы. Народные мстители (2017) WEB-DLRip
  • СуперБобровы. Народные мстители (2017) WEB-DL [1080p] ATV


    • Комментарии (0):

      Информация

      Информация

        Посетители, находящиеся в группе Гости, не могут оставлять комментарии в данной новости.

        ↓ Меню




        ↓ Опрос

        Вы добавили сайт в закладки?
        Да
        Нет


        Top 10 за месяц (Фильмы)